查看: 339|回復: 4
打印 上一主題 下一主題

[10bit.HDR] 天使陷落/奧林匹斯的陷落3 Angel.Has.Fallen.2019.2160p.UHD.BluRay.X265.10bit.HDR.TrueHD.7.1.Atmos-AAAUHD 18.59GB

[復制鏈接]

 成長值: 3420

級別:資源管理組

注冊時間
2017-10-20
最后登錄
2019-12-11
聽眾
1
收聽
0
主題
88399
藍光幣
69949 枚
貢獻
12761 點
跳轉到指定樓層
樓主
發表于 2019-11-18 13:37:37 | 只看該作者 |只看大圖 回帖獎勵 |倒序瀏覽 |閱讀模式


譯  名 天使陷落 / 奧林匹斯的陷落3 / 白宮淪陷3﹕天使淪陷(港) / 空軍一號陷落
片  名 Angel Has Fallen
年  代 2019
產  地 美國
類  別 動作 / 犯罪
語  言 英語
上映日期 2019-08-23(美國)
IMDb評分  6.7/10 from 18202 users
IMDb鏈接  https://www.imdb.com/title/tt6189022
豆瓣評分 6.7/10 from 984 users
豆瓣鏈接 https://movie.douban.com/subject/26900949/
片  長 121分鐘
導  演 里克·羅曼·沃夫 Ric Roman Waugh
編  劇 凱特琳·貝內迪克特 Katrin Benedikt / 羅伯特·馬克·卡門 Robert Mark Kamen / 克賴頓·羅森博格 Creighton Rothenberger
主  演 杰拉德·巴特勒 Gerard Butler
       摩根·弗里曼 Morgan Freeman
       派珀·佩拉博 Piper Perabo
       蘭斯·萊迪克 Lance Reddick
       賈達·萍克·史密斯 Jada Pinkett Smith
       蒂姆·布雷克·尼爾森 Tim Blake Nelson
       尼克·諾特 Nick Nolte
       克里斯·勃朗寧 Chris Browning
       丹尼·赫斯頓 Danny Huston
       邁克爾·蘭德斯 Michael Landes
       約瑟夫·米爾森 Joseph Millson
       索菲婭·德爾·皮佐 Sophia Del Pizzo
       馬克·阿諾德 Mark Arnold
       薩皮爾·阿蘇拉 Sapir Azulay
       費雷德里克·施密特 Frederick Schmidt
       馬克·史密斯 Mark Rhino Smith
       布倫丹·凱利 Brendan Kelly
       凱瑞·莎勒 Kerry Shale
       奧利·普費弗 Ori Pfeffer
       布萊恩·拉金 Bryan Larkin
       科林·斯廷頓 Colin Stinton
       阿塔納斯·斯雷布雷夫 Atanas Srebrev
       賈格·帕特爾 Jag Patel
       喬蕾·科斯 Joelle Koissi
       黛博拉·洛克 Deborah Rock
       丹尼爾·厄根 Daniel Eghan
       伯納多·桑托斯 Bernardo Santos
       內森·庫珀 Nathan Cooper
       泰·赫爾利 Ty Hurley
       保羅·布萊克維爾 Paul Blackwell
       米迦勒·博迪 Michael Bodie
       勞拉·馬塔沙 Laura Matassa
       凱文·馬塔迪恩 Kevin Matadeen
       格雷格·奧維斯 Greg Orvis
       馬丁·貝爾曼 Martin Behrman
       喬治婭·古德曼 Georgia Goodman


標  簽 動作 | 美國 | 陷落 | 2019 | 反恐 | 犯罪 | 戰爭 | 特工

簡  介  

  美國總統(摩根·弗里曼飾)在遭遇無人機恐怖襲擊后身受重傷陷入昏迷,隨行人員在多次爆炸中全軍覆沒,唯一的幸存者——總統多年貼身保鏢邁克·班寧(杰拉德·巴特勒飾)卻成最大嫌疑犯,被FBI控告企圖暗殺總統。班寧必須給自己洗刷冤屈,同時阻止真正的刺殺總統計劃,在多方勢力圍追堵截下,走投無路的他只能尋求一名神秘人的保護……曾經的英雄保鏢如今變為通緝犯,班寧將如何脫離險境、保護總統,破解背后的陰謀?
  1. Video
  2. ID                                       : 1
  3. Format                                   : HEVC
  4. Format/Info                              : High Efficiency Video Coding
  5. Format profile                           : Main [email protected]@High
  6. HDR format                               : SMPTE ST 2086, HDR10 compatible
  7. Codec ID                                 : V_MPEGH/ISO/HEVC
  8. Duration                                 : 2 h 1 min
  9. Bit rate                                 : 18.0 Mb/s
  10. Width                                    : 3 840 pixels
  11. Height                                   : 1 606 pixels
  12. Display aspect ratio                     : 2.40:1
  13. Frame rate mode                          : Constant
  14. Frame rate                               : 23.976 (24000/1001) FPS
  15. Color space                              : YUV
  16. Chroma subsampling                       : 4:2:0 (Type 2)
  17. Bit depth                                : 10 bits
  18. Bits/(Pixel*Frame)                       : 0.122
  19. Stream size                              : 15.2 GiB (83%)
  20. Title                                    : Angel.Has.Fallen.2019.2160p.UHD.BluRay.x265-AAAUHD
  21. Writing library                          : x265 3.27fc1f6ef2b96:[Windows][GCC 9.2.1][64 bit] 10bit
  22. Encoding settings                        : cpuid=1111039 / frame-threads=4 / numa-pools=24 / wpp / no-pmode / no-pme / no-psnr / no-ssim / log-level=2 / input-csp=1 / input-res=3840x1606 / interlace=0 / total-frames=174146 / level-idc=51 / high-tier=1 / uhd-bd=0 / ref=4 / no-allow-non-conformance / repeat-headers / annexb / aud / hrd / info / hash=0 / no-temporal-layers / no-open-gop / min-keyint=1 / keyint=24 / gop-lookahead=0 / bframes=4 / b-adapt=2 / b-pyramid / bframe-bias=0 / rc-lookahead=25 / lookahead-slices=4 / scenecut=40 / radl=0 / no-splice / no-intra-refresh / ctu=64 / min-cu-size=8 / rect / no-amp / max-tu-size=32 / tu-inter-depth=1 / tu-intra-depth=1 / limit-tu=0 / rdoq-level=2 / dynamic-rd=0.00 / no-ssim-rd / signhide / no-tskip / nr-intra=0 / nr-inter=0 / no-constrained-intra / no-strong-intra-smoothing / max-merge=3 / limit-refs=3 / limit-modes / me=3 / subme=3 / merange=57 / temporal-mvp / no-frame-dup / no-hme / weightp / no-weightb / no-analyze-src-pics / deblock=-3:-3 / no-sao / no-sao-non-deblock / rd=4 / selective-sao=0 / no-early-skip / rskip / no-fast-intra / no-tskip-fast / no-cu-lossless / no-b-intra / no-splitrd-skip / rdpenalty=0 / psy-rd=2.00 / psy-rdoq=1.00 / no-rd-refine / no-lossless / cbqpoffs=0 / crqpoffs=0 / rc=crf / crf=17.0 / qcomp=0.60 / qpstep=4 / stats-write=0 / stats-read=0 / vbv-maxrate=160000 / vbv-bufsize=160000 / vbv-init=0.9 / crf-max=0.0 / crf-min=0.0 / ipratio=1.40 / pbratio=1.30 / aq-mode=2 / aq-strength=1.00 / cutree / zone-count=0 / no-strict-cbr / qg-size=32 / no-rc-grain / qpmax=69 / qpmin=0 / no-const-vbv / sar=1 / overscan=0 / videoformat=5 / range=0 / colorprim=9 / transfer=16 / colormatrix=9 / chromaloc=1 / chromaloc-top=2 / chromaloc-bottom=2 / display-window=0 / master-display=G(13250,34500)B(7500,3000)R(34000,16000)WP(15635,16450)L(10000000,10) / cll=1000,634 / min-luma=0 / max-luma=1023 / log2-max-poc-lsb=8 / vui-timing-info / vui-hrd-info / slices=1 / no-opt-qp-pps / no-opt-ref-list-length-pps / no-multi-pass-opt-rps / scenecut-bias=0.05 / no-opt-cu-delta-qp / no-aq-motion / hdr / hdr-opt / no-dhdr10-opt / no-idr-recovery-sei / analysis-reuse-level=5 / scale-factor=0 / refine-intra=0 / refine-inter=0 / refine-mv=1 / refine-ctu-distortion=0 / no-limit-sao / ctu-info=0 / no-lowpass-dct / refine-analysis-type=0 / copy-pic=1 / max-ausize-factor=1.0 / no-dynamic-refine / no-single-sei / no-hevc-aq / no-svt / no-field / qp-adaptation-range=1.00
  23. Default                                  : Yes
  24. Forced                                   : No
  25. Color range                              : Limited
  26. Color primaries                          : BT.2020
  27. Transfer characteristics                 : PQ
  28. Matrix coefficients                      : BT.2020 non-constant
  29. Mastering display color primaries        : Display P3
  30. Mastering display luminance              : min: 0.0010 cd/m2, max: 1000 cd/m2
  31. Maximum Content Light Level              : 1000 cd/m2
  32. Maximum Frame-Average Light Level        : 634 cd/m2

  33. Audio #1
  34. ID                                       : 2
  35. Format                                   : MLP FBA 16-ch
  36. Format/Info                              : Meridian Lossless Packing FBA with 16-channel presentation
  37. Commercial name                          : Dolby TrueHD with Dolby Atmos
  38. Codec ID                                 : A_TRUEHD
  39. Duration                                 : 2 h 1 min
  40. Bit rate mode                            : Variable
  41. Bit rate                                 : 3 046 kb/s
  42. Maximum bit rate                         : 5 010 kb/s
  43. Channel(s)                               : 8 channels
  44. Channel layout                           : L R C LFE Ls Rs Lb Rb
  45. Sampling rate                            : 48.0 kHz
  46. Frame rate                               : 1 200.000 FPS (40 SPF)
  47. Compression mode                         : Lossless
  48. Stream size                              : 2.58 GiB (14%)
  49. Title                                    : English Dolby TrueHD with Dolby Atmos (TrueHD)
  50. Language                                 : English
  51. Default                                  : Yes
  52. Forced                                   : No
  53. Number of dynamic objects                : 11
  54. Bed channel count                        : 1 channel
  55. Bed channel configuration                : LFE

  56. Audio #2
  57. ID                                       : 3
  58. Format                                   : AC-3
  59. Format/Info                              : Audio Coding 3
  60. Commercial name                          : Dolby Digital
  61. Codec ID                                 : A_AC3
  62. Duration                                 : 2 h 1 min
  63. Bit rate mode                            : Constant
  64. Bit rate                                 : 640 kb/s
  65. Channel(s)                               : 6 channels
  66. Channel layout                           : L R C LFE Ls Rs
  67. Sampling rate                            : 48.0 kHz
  68. Frame rate                               : 31.250 FPS (1536 SPF)
  69. Bit depth                                : 16 bits
  70. Compression mode                         : Lossy
  71. Stream size                              : 554 MiB (3%)
  72. Title                                    : English Dolby Digital (AC3)
  73. Language                                 : English
  74. Service kind                             : Complete Main
  75. Default                                  : No
  76. Forced                                   : No

  77. Text #1
  78. ID                                       : 4
  79. Format                                   : UTF-8
  80. Codec ID                                 : S_TEXT/UTF8
  81. Codec ID/Info                            : UTF-8 Plain Text
  82. Duration                                 : 1 h 52 min
  83. Bit rate                                 : 63 b/s
  84. Count of elements                        : 1542
  85. Stream size                              : 52.3 KiB (0%)
  86. Title                                    : English SDH
  87. Language                                 : English
  88. Default                                  : No
  89. Forced                                   : No

  90. Text #2
  91. ID                                       : 5
  92. Format                                   : PGS
  93. Codec ID                                 : S_HDMV/PGS
  94. Codec ID/Info                            : Picture based subtitle format used on BDs/HD-DVDs
  95. Duration                                 : 1 h 52 min
  96. Bit rate                                 : 44.7 kb/s
  97. Count of elements                        : 3092
  98. Stream size                              : 36.1 MiB (0%)
  99. Title                                    : English PGS
  100. Language                                 : English
  101. Default                                  : No
  102. Forced                                   : No

  103. Menu
  104. 00:00:00.000                             : :Chapter 01
  105. 00:06:48.950                             : :Chapter 02
  106. 00:15:08.157                             : :Chapter 03
  107. 00:23:13.809                             : :Chapter 04
  108. 00:28:35.714                             : :Chapter 05
  109. 00:39:39.627                             : :Chapter 06
  110. 00:45:33.564                             : :Chapter 07
  111. 00:50:56.053                             : :Chapter 08
  112. 00:59:23.393                             : :Chapter 09
  113. 01:06:50.882                             : :Chapter 10
  114. 01:16:25.873                             : :Chapter 11
  115. 01:24:11.046                             : :Chapter 12
  116. 01:30:14.409                             : :Chapter 13
  117. 01:37:42.065                             : :Chapter 14
  118. 01:44:54.538                             : :Chapter 15
  119. 01:51:08.120                             : :Chapter 16
復制代碼









本帖隱藏的下載地址需要VIP會員才可瀏覽,您需要升級才可瀏覽,點擊這里升級VIP
分享到:  QQ好友和群QQ好友和群
收藏收藏
VIP會員免費任意下載本站所有資源!---點擊開通
回復

使用道具 舉報

級別:初級觀眾 Lv.1

注冊時間
2019-9-8
最后登錄
2019-11-23
聽眾
0
收聽
0
主題
0
藍光幣
3 枚
貢獻
0 點
沙發
發表于 2019-11-23 22:17:41 | 只看該作者

這東西我收了!謝謝樓主!中國高清電影網真好!
VIP會員免費任意下載本站所有資源!---點擊開通
回復

使用道具 舉報

 成長值: 340

級別:尊貴的會員

注冊時間
2019-11-24
最后登錄
2019-12-1
聽眾
0
收聽
0
主題
0
藍光幣
7 枚
貢獻
0 點
板凳
發表于 2019-11-24 20:31:17 | 只看該作者
這哥們陷落了一輩子……佩服
VIP會員免費任意下載本站所有資源!---點擊開通
回復

使用道具 舉報

級別:初級觀眾 Lv.1

注冊時間
2019-11-24
最后登錄
2019-11-24
聽眾
0
收聽
0
主題
0
藍光幣
1 枚
貢獻
0 點
地板
發表于 2019-11-24 23:04:42 | 只看該作者
樓主發貼辛苦了,謝謝樓主分享!我覺得中國高清電影網是注冊對了!
VIP會員免費任意下載本站所有資源!---點擊開通
回復

使用道具 舉報

級別:初級觀眾 Lv.1

注冊時間
2019-11-25
最后登錄
2019-12-1
聽眾
0
收聽
0
主題
0
藍光幣
0 枚
貢獻
0 點
5#
發表于 2019-11-25 20:04:50 | 只看該作者
又一部陷落大片兒,感謝分享!支持!
VIP會員免費任意下載本站所有資源!---點擊開通
回復

使用道具 舉報

懶得打字嘛,點擊右側快捷回復 【右側內容,后臺自定義】
您需要登錄后才可以回帖 登錄 | 立即注冊

本版積分規則

QQ|Archiver|手機版|小黑屋| 中國高清網 |網站地圖

GMT+8, 2019-12-11 00:53 , Processed in 0.188319 second(s), 36 queries .

Powered by HDchina X3.4

Copyright 2017-2019©HDchina.All right reserved

返回頂部 聯系我們
三分彩如何看规律