查看: 163|回復: 10
打印 上一主題 下一主題

[喜劇片] 一個好人 Mr.Nice.Guy.1997.1080p.BluRay.x264.DTS-FGT 8.85GB

[復制鏈接]

 成長值: 3420

級別:資源管理組

注冊時間
2017-10-20
最后登錄
2019-12-11
聽眾
1
收聽
0
主題
88399
藍光幣
69949 枚
貢獻
12761 點
跳轉到指定樓層
樓主
發表于 2019-11-20 22:27:01 | 只看該作者 |只看大圖 回帖獎勵 |倒序瀏覽 |閱讀模式


譯  名 一個好人 / Mr. Nice Guy / 義膽廚星
片  名 一個好人
年  代 1997
產  地 中國香港
類  別 喜劇 / 動作 / 犯罪
語  言 英語 / 漢語普通話 / 粵語
上映日期 1997-01-31(中國香港)
IMDb評分  6.2/10 from 23787 users
IMDb鏈接  https://www.imdb.com/title/tt0117786
豆瓣評分 7.0/10 from 20947 users
豆瓣鏈接 https://movie.douban.com/subject/1295547/
片  長 97分鐘
導  演 洪金寶
編  劇 馬美萍 Fibe Ma / 鄧景生 Edward Tang
主  演 成龍 Jackie Chan
       理查德·諾頓 Richard Norton
       李婷宜 Miki Lee
       Karen McLymont
       加布里埃爾·費茨帕特里克 Gabrielle Fitzpatrick
       Vince Poletto
       Barry Otto
       洪金寶 Sammo Hung Kam-Bo
       周華健 Emil Chau
       高麗虹 Joyce Godenzi
       Peter Houghton
       Peter Lindsay
       大衛·諾 David No
       Rachel Blakely
       Judy Green
       Aaron Notarfrancesco
       Jake Notarfrancesco
       Frederick Miragliotta
       Nick Carrafa
       Keith Agius
       Carla Bonner
       陳英明 Glen Chin


標  簽 成龍 | 動作 | 香港 | 喜劇 | 香港電影 | 洪金寶 | 1997 | 一個好人

簡  介  

  澳大利亞墨爾本,華裔廚師積奇(成龍 飾)是當地小有名氣的人物,定期在電視上主持烹飪節目。
  毒梟金·卡洛(Richard Norton 飾)集團頗有勢力,金·卡洛本人殘暴冷酷,清除了敵對幫派的臥底之后率眾和對方在倉庫大打出手,而槍戰全過程被記者戴安娜(Gabrielle Fitzpatrick 飾)用攝影機記錄。在躲避販毒集團追逐的路上,戴安娜巧遇積奇,后者仗義出手為她引開歹徒,孰料兩人分手時戴安娜錯將積奇的節目錄像帶當做證據帶走。戴安娜的住處很快被販毒集團找到,遍搜不獲的歹徒們開始將目標轉向積奇。積奇女友美琪(李婷宜 飾)遠道來訪,特意參加了積奇的節目錄制,販毒集團在錄制現場圍捕積奇,經過一番街頭苦戰,積奇終于脫險。黃雀在后的金·卡洛敵對幫派帶走了美琪,要挾積奇用錄像帶換人,一時間,圍繞著錄像帶,積奇、警方、以及兩個犯罪集團陷入了混亂的爭奪戰。

獲獎情況  

  第34屆臺北金馬影展(1997)
  金馬獎 最佳動作設計 曹榮
  金馬獎 最佳剪輯(提名) 張耀宗 / 邱志偉

  第17屆香港電影金像獎(1998)
  最佳動作設計(提名) 曹榮
  1. Video
  2. ID                                       : 1
  3. Format                                   : AVC
  4. Format/Info                              : Advanced Video Codec
  5. Format profile                           : [email protected]
  6. Format settings                          : CABAC / 4 Ref Frames
  7. Format settings, CABAC                   : Yes
  8. Format settings, Reference frames        : 4 frames
  9. Codec ID                                 : V_MPEG4/ISO/AVC
  10. Duration                                 : 1 h 37 min
  11. Bit rate                                 : 11.5 Mb/s
  12. Width                                    : 1 920 pixels
  13. Height                                   : 800 pixels
  14. Display aspect ratio                     : 2.40:1
  15. Frame rate mode                          : Constant
  16. Frame rate                               : 23.976 (24000/1001) FPS
  17. Color space                              : YUV
  18. Chroma subsampling                       : 4:2:0
  19. Bit depth                                : 8 bits
  20. Scan type                                : Progressive
  21. Bits/(Pixel*Frame)                       : 0.312
  22. Stream size                              : 7.82 GiB (88%)
  23. Title                                    : Mr.Nice.Guy.1997.1080p.BluRay.x264.DTS-FGT
  24. Writing library                          : x264 core 148 r2748 97eaef2
  25. Encoding settings                        : cabac=1 / ref=4 / deblock=1:-2:-2 / analyse=0x3:0x113 / me=umh / subme=9 / psy=1 / psy_rd=1.00:0.15 / mixed_ref=1 / me_range=16 / chroma_me=1 / trellis=2 / 8x8dct=1 / cqm=0 / deadzone=21,11 / fast_pskip=1 / chroma_qp_offset=-3 / threads=24 / lookahead_threads=3 / sliced_threads=0 / nr=0 / decimate=1 / interlaced=0 / bluray_compat=0 / constrained_intra=0 / bframes=3 / b_pyramid=2 / b_adapt=1 / b_bias=0 / direct=3 / weightb=1 / open_gop=0 / weightp=2 / keyint=250 / keyint_min=25 / scenecut=40 / intra_refresh=0 / rc_lookahead=50 / rc=2pass / mbtree=1 / bitrate=11500 / ratetol=1.0 / qcomp=0.60 / qpmin=0 / qpmax=69 / qpstep=4 / cplxblur=20.0 / qblur=0.5 / vbv_maxrate=31250 / vbv_bufsize=31250 / nal_hrd=none / filler=0 / ip_ratio=1.40 / aq=1:1.00
  26. Language                                 : English
  27. Default                                  : Yes
  28. Forced                                   : No

  29. Audio
  30. ID                                       : 2
  31. Format                                   : DTS
  32. Format/Info                              : Digital Theater Systems
  33. Codec ID                                 : A_DTS
  34. Duration                                 : 1 h 37 min
  35. Bit rate mode                            : Constant
  36. Bit rate                                 : 1 509 kb/s
  37. Channel(s)                               : 6 channels
  38. Channel layout                           : C L R Ls Rs LFE
  39. Sampling rate                            : 48.0 kHz
  40. Frame rate                               : 93.750 FPS (512 SPF)
  41. Bit depth                                : 24 bits
  42. Compression mode                         : Lossy
  43. Stream size                              : 1.03 GiB (12%)
  44. Title                                    : Mr.Nice.Guy.1997.1080p.BluRay.x264.DTS-FGT
  45. Language                                 : English
  46. Default                                  : Yes
  47. Forced                                   : No

  48. Text #1
  49. ID                                       : 3
  50. Format                                   : UTF-8
  51. Codec ID                                 : S_TEXT/UTF8
  52. Codec ID/Info                            : UTF-8 Plain Text
  53. Duration                                 : 52 min 56 s
  54. Bit rate                                 : 3 b/s
  55. Count of elements                        : 67
  56. Stream size                              : 1.47 KiB (0%)
  57. Title                                    : FORCED
  58. Language                                 : English
  59. Default                                  : Yes
  60. Forced                                   : No

  61. Text #2
  62. ID                                       : 4
  63. Format                                   : UTF-8
  64. Codec ID                                 : S_TEXT/UTF8
  65. Codec ID/Info                            : UTF-8 Plain Text
  66. Duration                                 : 1 h 33 min
  67. Bit rate                                 : 31 b/s
  68. Count of elements                        : 999
  69. Stream size                              : 21.8 KiB (0%)
  70. Language                                 : English
  71. Default                                  : No
  72. Forced                                   : No

  73. Menu
  74. 00:00:00.000                             : en:Chapter 01
  75. 00:00:39.039                             : en:Chapter 02
  76. 00:02:22.100                             : en:Chapter 03
  77. 00:03:29.292                             : en:Chapter 04
  78. 00:04:34.565                             : en:Chapter 05
  79. 00:06:41.526                             : en:Chapter 06
  80. 00:08:00.730                             : en:Chapter 07
  81. 00:11:52.712                             : en:Chapter 08
  82. 00:15:51.116                             : en:Chapter 09
  83. 00:17:22.041                             : en:Chapter 10
  84. 00:20:29.144                             : en:Chapter 11
  85. 00:22:05.490                             : en:Chapter 12
  86. 00:26:00.058                             : en:Chapter 13
  87. 00:28:54.607                             : en:Chapter 14
  88. 00:32:08.885                             : en:Chapter 15
  89. 00:37:11.103                             : en:Chapter 16
  90. 00:40:46.026                             : en:Chapter 17
  91. 00:45:56.003                             : en:Chapter 18
  92. 00:49:18.413                             : en:Chapter 19
  93. 00:54:39.234                             : en:Chapter 20
  94. 00:59:10.964                             : en:Chapter 21
  95. 00:59:40.660                             : en:Chapter 22
  96. 01:05:22.084                             : en:Chapter 23
  97. 01:10:23.552                             : en:Chapter 24
  98. 01:14:16.076                             : en:Chapter 25
  99. 01:18:42.801                             : en:Chapter 26
  100. 01:21:47.235                             : en:Chapter 27
  101. 01:24:41.493                             : en:Chapter 28
  102. 01:27:40.046                             : en:Chapter 29
  103. 01:32:56.237                             : en:Chapter 30
復制代碼









分享到:  QQ好友和群QQ好友和群
收藏收藏
VIP會員免費任意下載本站所有資源!---點擊開通
回復

使用道具 舉報

級別:群眾演員 Lv.3

注冊時間
2019-11-4
最后登錄
2019-12-8
聽眾
1
收聽
0
主題
0
藍光幣
31 枚
貢獻
0 點
沙發
發表于 2019-11-21 06:35:03 | 只看該作者
樓主發貼辛苦了,謝謝樓主分享!我覺得中國高清電影網是注冊對了!
VIP會員免費任意下載本站所有資源!---點擊開通
回復

使用道具 舉報

級別:普通觀眾 Lv.2

注冊時間
2019-8-22
最后登錄
2019-12-10
聽眾
2
收聽
0
主題
0
藍光幣
46 枚
貢獻
0 點
板凳
發表于 2019-11-21 14:49:19 | 只看該作者
樓主發貼辛苦了,謝謝樓主分享!我覺得中國高清電影網是注冊對了!
VIP會員免費任意下載本站所有資源!---點擊開通
回復

使用道具 舉報

級別:普通觀眾 Lv.2

注冊時間
2019-11-3
最后登錄
2019-11-29
聽眾
0
收聽
0
主題
0
藍光幣
16 枚
貢獻
0 點
地板
發表于 2019-11-21 18:20:01 | 只看該作者
不錯不錯,蠻好的呀,謝謝樓主,辛苦!
VIP會員免費任意下載本站所有資源!---點擊開通
回復

使用道具 舉報

級別:專業龍套 Lv.4

注冊時間
2018-11-20
最后登錄
2019-12-10
聽眾
16
收聽
0
主題
0
藍光幣
509 枚
貢獻
0 點
5#
發表于 2019-11-22 13:29:13 | 只看該作者
樓主發貼辛苦了,謝謝樓主分享!我覺得中國高清電影網是注冊對了!
VIP會員免費任意下載本站所有資源!---點擊開通
回復

使用道具 舉報

 成長值: 325

級別:尊貴的會員

注冊時間
2019-2-5
最后登錄
2019-12-10
聽眾
8
收聽
0
主題
0
藍光幣
16 枚
貢獻
0 點
QQ
6#
發表于 2019-11-22 21:26:38 | 只看該作者

樓主太厲害了!樓主,電影應該很好看我覺得中國高清電影網真是個好地方!
VIP會員免費任意下載本站所有資源!---點擊開通
回復

使用道具 舉報

級別:普通觀眾 Lv.2

注冊時間
2019-11-19
最后登錄
2019-12-10
聽眾
1
收聽
0
主題
0
藍光幣
27 枚
貢獻
0 點
7#
發表于 2019-11-22 22:21:27 | 只看該作者
謝謝樓主分享!
VIP會員免費任意下載本站所有資源!---點擊開通
回復

使用道具 舉報

級別:普通觀眾 Lv.2

注冊時間
2019-8-30
最后登錄
2019-12-10
聽眾
2
收聽
0
主題
0
藍光幣
17 枚
貢獻
0 點
8#
發表于 2019-11-23 23:05:49 | 只看該作者

這東西我收了!謝謝樓主!中國高清電影網真好!
VIP會員免費任意下載本站所有資源!---點擊開通
回復

使用道具 舉報

級別:普通觀眾 Lv.2

注冊時間
2019-8-30
最后登錄
2019-12-10
聽眾
2
收聽
0
主題
0
藍光幣
17 枚
貢獻
0 點
受到警告 9#
發表于 2019-11-23 23:06:25 | 只看該作者

其實我一直覺得樓主的品味不錯!呵呵!中國高清電影網太棒了!
VIP會員免費任意下載本站所有資源!---點擊開通
回復

使用道具 舉報

級別:普通觀眾 Lv.2

注冊時間
2019-8-30
最后登錄
2019-12-10
聽眾
2
收聽
0
主題
0
藍光幣
17 枚
貢獻
0 點
10#
發表于 2019-12-2 17:42:57 | 只看該作者
謝謝分享好東西
VIP會員免費任意下載本站所有資源!---點擊開通
回復

使用道具 舉報

懶得打字嘛,點擊右側快捷回復 【右側內容,后臺自定義】
您需要登錄后才可以回帖 登錄 | 立即注冊

本版積分規則

QQ|Archiver|手機版|小黑屋| 中國高清網 |網站地圖

GMT+8, 2019-12-11 01:01 , Processed in 0.207573 second(s), 37 queries .

Powered by HDchina X3.4

Copyright 2017-2019©HDchina.All right reserved

返回頂部 聯系我們
三分彩如何看规律