查看: 167|回復: 2
打印 上一主題 下一主題

[動畫片] 虐殺器官 Genocidal.Organ.2017.JAPANESE.1080p.BluRay.x264.DTS-FGT 10.41GB

[復制鏈接]

 成長值: 3450

級別:資源管理組

注冊時間
2017-10-20
最后登錄
2019-12-13
聽眾
1
收聽
0
主題
88439
藍光幣
70807 枚
貢獻
12801 點
跳轉到指定樓層
樓主
發表于 2019-11-23 14:05:54 | 只看該作者 |只看大圖 回帖獎勵 |倒序瀏覽 |閱讀模式


譯  名 虐殺器官 / Genocidal Organ
片  名 虐殺器官
年  代 2017
產  地 日本
類  別 科幻 / 動畫
語  言 日語
上映日期 2017-02-03(日本)
IMDb評分  6.4/10 from 567 users
IMDb鏈接  https://www.imdb.com/title/tt3615160
豆瓣評分 7.1/10 from 4737 users
豆瓣鏈接 https://movie.douban.com/subject/25850715/
片  長 115分鐘
導  演 村瀨修功 Shukō Murase
編  劇 村瀨修功 Shukō Murase / 伊藤計劃 Project Itoh
主  演 中村悠一 Yuuichi Nakamura
       三上哲 Satoshi Mikami
       梶裕貴 Y?ki Kaji
       石川界人 Kaito Ishikawa
       小林沙苗 Sanae Kobayashi
       土師孝也 Takaya Hashi
       山路和弘 Kazuhiro Yamaji
       蓮岳大 Hasu Takehiro
       大川透 T?ru ?kawa
       五十嵐麗 Rei Igarashi
       中博史 Hiroshi Naka
       桐本拓哉 Kirimoto Takuya
       深見梨加 Rica Fukami
       后藤弘樹 Hiroki Got?
       佐佐健太 Sasa Kenta
       田丸裕臣
       高橋伸也 Takahashi Shinya
       小林直人 Naoto Kobayashi
       中村和正
       德本英一郎 Tokumoto Eiichirou
       戶田惠 Toda Megumi
       山村響 Hibiku Yamamura
       家中宏 Hiroshi Yanaka
       市道真央 Mao Ichimichi
       種崎敦美 Atsumi Tanezaki
       手冢弘道 Tezuka Hiromichi
       金子森
       近藤祐司
       村田齊潔
       大塚明夫 Akio ?tsuka
       櫻井孝宏 Takahiro Sakurai


標  簽 科幻 | 日本 | 動畫 | 劇場版 | 2017 | 動漫 | 戰爭 | 人性

簡  介  

  《屠殺器官》的舞臺將設定在賽拉耶佛核爆后的地球,此時部分落后國家爆發了一連串內戰及民族沖突,在這血腥風暴之中,美國特殊情報部隊「克拉維斯(クラヴィス)」發現了在陰影之下有一名叫「約翰?保羅(ジョン?ポール)」的美國人參與其中,約翰路過之處必定掀起腥風血雨,這讓眾人瘋狂的 「屠殺器官」到底是什么?
  劇場版動畫《屠殺器官》根據早逝的天才科幻小說作家伊藤計劃的同名小說改編,由富士電視臺的noitaminA節目企劃,manglobe制作,將于2015年10月上映。
  1. Video
  2. ID                                       : 1
  3. Format                                   : AVC
  4. Format/Info                              : Advanced Video Codec
  5. Format profile                           : [email protected]
  6. Format settings                          : CABAC / 4 Ref Frames
  7. Format settings, CABAC                   : Yes
  8. Format settings, Reference frames        : 4 frames
  9. Codec ID                                 : V_MPEG4/ISO/AVC
  10. Duration                                 : 1 h 54 min
  11. Bit rate                                 : 11.5 Mb/s
  12. Width                                    : 1 920 pixels
  13. Height                                   : 1 080 pixels
  14. Display aspect ratio                     : 16:9
  15. Frame rate mode                          : Constant
  16. Frame rate                               : 23.976 (24000/1001) FPS
  17. Color space                              : YUV
  18. Chroma subsampling                       : 4:2:0
  19. Bit depth                                : 8 bits
  20. Scan type                                : Progressive
  21. Bits/(Pixel*Frame)                       : 0.231
  22. Stream size                              : 9.20 GiB (88%)
  23. Title                                    : Genocidal.Organ.2017.JAPANESE.1080p.BluRay.x264.DTS-FGT
  24. Writing library                          : x264 core 148 r2795M aaa9aa8
  25. Encoding settings                        : cabac=1 / ref=4 / deblock=1:1:1 / analyse=0x3:0x113 / me=umh / subme=8 / psy=1 / psy_rd=0.50:0.00 / mixed_ref=1 / me_range=32 / chroma_me=1 / trellis=2 / 8x8dct=1 / cqm=0 / deadzone=21,11 / fast_pskip=1 / chroma_qp_offset=-2 / threads=34 / lookahead_threads=3 / sliced_threads=0 / nr=0 / decimate=1 / interlaced=0 / bluray_compat=0 / constrained_intra=0 / bframes=3 / b_pyramid=2 / b_adapt=1 / b_bias=0 / direct=3 / weightb=1 / open_gop=0 / weightp=2 / keyint=240 / keyint_min=24 / scenecut=40 / intra_refresh=0 / rc_lookahead=50 / rc=2pass / mbtree=1 / bitrate=11500 / ratetol=1.0 / qcomp=0.60 / qpmin=0 / qpmax=69 / qpstep=4 / cplxblur=20.0 / qblur=0.5 / vbv_maxrate=31250 / vbv_bufsize=31250 / nal_hrd=none / filler=0 / ip_ratio=1.40 / aq=3:0.60
  26. Language                                 : Japanese
  27. Default                                  : Yes
  28. Forced                                   : No

  29. Audio
  30. ID                                       : 2
  31. Format                                   : DTS
  32. Format/Info                              : Digital Theater Systems
  33. Codec ID                                 : A_DTS
  34. Duration                                 : 1 h 54 min
  35. Bit rate mode                            : Constant
  36. Bit rate                                 : 1 509 kb/s
  37. Channel(s)                               : 6 channels
  38. Channel layout                           : C L R Ls Rs LFE
  39. Sampling rate                            : 48.0 kHz
  40. Frame rate                               : 93.750 FPS (512 SPF)
  41. Bit depth                                : 24 bits
  42. Compression mode                         : Lossy
  43. Stream size                              : 1.21 GiB (12%)
  44. Title                                    : Genocidal.Organ.2017.JAPANESE.1080p.BluRay.x264.DTS-FGT
  45. Language                                 : Japanese
  46. Default                                  : Yes
  47. Forced                                   : No

  48. Text
  49. ID                                       : 3
  50. Format                                   : UTF-8
  51. Codec ID                                 : S_TEXT/UTF8
  52. Codec ID/Info                            : UTF-8 Plain Text
  53. Duration                                 : 1 h 53 min
  54. Bit rate                                 : 56 b/s
  55. Count of elements                        : 1138
  56. Stream size                              : 46.7 KiB (0%)
  57. Language                                 : English
  58. Default                                  : Yes
  59. Forced                                   : No

  60. Menu
  61. 00:00:00.000                             : en:Captain Clavis Shepherd
  62. 00:02:13.050                             : en:Georgia, 2020
  63. 00:16:27.945                             : en:Highly Controlled Society
  64. 00:19:00.556                             : en:Hell
  65. 00:21:27.786                             : en:Summon
  66. 00:28:02.180                             : en:John paul
  67. 00:29:48.537                             : en:Lucie Skroupova
  68. 00:37:28.913                             : en:Being Trailed
  69. 00:42:08.985                             : en:Kafka\'s Grave
  70. 00:44:07.436                             : en:Club
  71. 00:48:42.711                             : en:Escape
  72. 00:53:14.233                             : en:Lord of Genocide
  73. 00:57:21.188                             : en:Accomplice
  74. 01:01:45.327                             : en:Mercenaries
  75. 01:05:24.295                             : en:Operation
  76. 01:16:28.626                             : en:Grammer of Genocide
  77. 01:21:16.246                             : en:Being Attacked
  78. 01:27:24.406                             : en:Lake Victoria Coast Industry\'s Federation
  79. 01:30:40.101                             : en:Assassinate
  80. 01:42:55.252                             : en:This Is My Story
  81. 01:49:20.387                             : en:End Credits
復制代碼








分享到:  QQ好友和群QQ好友和群
收藏收藏
VIP會員免費任意下載本站所有資源!---點擊開通
回復

使用道具 舉報

級別:群眾演員 Lv.3

注冊時間
2019-10-27
最后登錄
2019-12-12
聽眾
1
收聽
0
主題
0
藍光幣
79 枚
貢獻
0 點
沙發
發表于 2019-11-23 22:26:56 | 只看該作者
樓主發貼辛苦了,謝謝樓主分享!我覺得中國高清電影網是注冊對了!
VIP會員免費任意下載本站所有資源!---點擊開通
回復

使用道具 舉報

級別:普通觀眾 Lv.2

注冊時間
2019-11-23
最后登錄
2019-12-12
聽眾
1
收聽
0
主題
0
藍光幣
29 枚
貢獻
0 點
板凳
發表于 2019-11-24 15:22:12 | 只看該作者

這東西我收了!謝謝樓主!中國高清電影網真好!
VIP會員免費任意下載本站所有資源!---點擊開通
回復

使用道具 舉報

懶得打字嘛,點擊右側快捷回復 【右側內容,后臺自定義】
您需要登錄后才可以回帖 登錄 | 立即注冊

本版積分規則

QQ|Archiver|手機版|小黑屋| 中國高清網 |網站地圖

GMT+8, 2019-12-14 01:31 , Processed in 0.195089 second(s), 36 queries .

Powered by HDchina X3.4

Copyright 2017-2019©HDchina.All right reserved

返回頂部 聯系我們
三分彩如何看规律