查看: 148|回復: 9
打印 上一主題 下一主題

[懸疑片] 準備好了沒/弒婚游戲 Ready.or.Not.2019.1080p.BluRay.x264.DTS-CHD 7.95GB

[復制鏈接]

 成長值: 3440

級別:資源管理組

注冊時間
2017-10-20
最后登錄
2019-12-13
聽眾
1
收聽
0
主題
88430
藍光幣
70614 枚
貢獻
12792 點
跳轉到指定樓層
樓主
發表于 2019-11-23 14:10:22 | 只看該作者 |只看大圖 回帖獎勵 |倒序瀏覽 |閱讀模式


譯  名 準備好了沒 / 弒婚游戲(臺) / 爆血新婚夜(港)
片  名 Ready or Not
年  代 2019
產  地 美國
類  別 懸疑 / 驚悚 / 恐怖
語  言 英語
上映日期 2019-08-21(美國)
IMDb評分  7.1/10 from 20292 users
IMDb鏈接  https://www.imdb.com/title/tt7798634
豆瓣評分 7.2/10 from 2555 users
豆瓣鏈接 https://movie.douban.com/subject/27594938/
片  長 95分鐘
導  演 馬特·貝蒂內利-奧爾平 Matt Bettinelli-Olpin / 泰勒·吉勒特 Tyler Gillett
編  劇 蓋伊·布西克 Guy Busick / 萊恩·墨菲 Ryan Murphy
主  演 薩瑪拉·維文 Samara Weaving
       安迪·麥克道威爾 Andie MacDowell
       馬克·奧布萊恩 Mark O'Brien
       亞當·布羅迪 Adam Brody
       亨利·科澤尼 Henry Czerny
       妮基·瓜達尼 Nicky Guadagni
       梅蘭妮·斯科洛凡諾 Melanie Scrofano
       克里斯蒂安·布魯恩 Kristian Bruun
       伊利斯 萊韋斯克 Elyse Levesque
       約翰·拉爾斯頓 John Ralston
       達妮埃拉·巴博薩 Daniela Barbosa
       伊拉娜·蓋爾 Elana Gale
       安德魯·安東尼 Andrew Anthony


標  簽 驚悚 | 恐怖 | 美國 | 2019 | 黑色幽默 | 婚禮 | 懸疑 | 喜劇

簡  介  

  福克斯探照燈拿下恐怖片《準備好了沒》(Ready or Not)的發行權,將立即開始選角,明年春天開拍。泰勒·吉勒特&馬特·貝蒂內利-奧爾平(《惡魔預產期》)執導,Guy Busick(《降魔警探》)和Ryan Murphy(非《美國恐怖故事》創作人)編寫劇本。劇情講述一位新娘即將嫁入豪門 ,婚禮當天晚上,姻親們強迫她參與一項離奇恐怖的捉迷藏游戲,引發致命災難。
  1. Video
  2. ID                                       : 1
  3. Format                                   : AVC
  4. Format/Info                              : Advanced Video Codec
  5. Format profile                           : [email protected]
  6. Format settings                          : CABAC / 4 Ref Frames
  7. Format settings, CABAC                   : Yes
  8. Format settings, Reference frames        : 4 frames
  9. Codec ID                                 : V_MPEG4/ISO/AVC
  10. Duration                                 : 1 h 35 min
  11. Bit rate                                 : 10.4 Mb/s
  12. Width                                    : 1 920 pixels
  13. Height                                   : 804 pixels
  14. Display aspect ratio                     : 2.40:1
  15. Frame rate mode                          : Constant
  16. Frame rate                               : 23.976 (24000/1001) FPS
  17. Color space                              : YUV
  18. Chroma subsampling                       : 4:2:0
  19. Bit depth                                : 8 bits
  20. Scan type                                : Progressive
  21. Bits/(Pixel*Frame)                       : 0.282
  22. Stream size                              : 6.94 GiB (87%)
  23. Title                                    : Ready.or.Not.2019.1080p.BluRay.x264.DTS-CHD
  24. Writing library                          : x264 core 157 r2867+150 7e91e0e t_mod_Custom_2 [[email protected] X86_64]
  25. Encoding settings                        : cabac=1 / ref=4 / deblock=1:-3:-3 / analyse=0x3:0x133 / me=umh / subme=11 / psy=1 / fade_compensate=0.00 / psy_rd=0.90:0.10 / mixed_ref=1 / me_range=64 / chroma_me=1 / trellis=2 / 8x8dct=1 / cqm=0 / deadzone=21,11 / fast_pskip=0 / chroma_qp_offset=-4 / threads=25 / lookahead_threads=4 / sliced_threads=0 / nr=0 / decimate=1 / interlaced=0 / bluray_compat=0 / constrained_intra=0 / fgo=0 / bframes=8 / b_pyramid=2 / b_adapt=2 / b_bias=0 / direct=3 / weightb=1 / open_gop=0 / weightp=2 / keyint=250 / keyint_min=23 / scenecut=40 / intra_refresh=0 / rc_lookahead=60 / rc=crf / mbtree=0 / crf=18.0000 / qcomp=0.70 / qpmin=0:0:0 / qpmax=69:69:69 / qpstep=4 / vbv_maxrate=35000 / vbv_bufsize=35000 / crf_max=0.0 / nal_hrd=none / filler=0 / ip_ratio=1.40 / pb_ratio=1.30 / aq=3:1.00 / aq-sensitivity=10.00 / aq-factor=1.00:1.00:1.00 / aq2=0 / aq3=0
  26. Language                                 : English
  27. Default                                  : Yes
  28. Forced                                   : No

  29. Audio
  30. ID                                       : 2
  31. Format                                   : DTS
  32. Format/Info                              : Digital Theater Systems
  33. Codec ID                                 : A_DTS
  34. Duration                                 : 1 h 35 min
  35. Bit rate mode                            : Constant
  36. Bit rate                                 : 1 509 kb/s
  37. Channel(s)                               : 6 channels
  38. Channel layout                           : C L R Ls Rs LFE
  39. Sampling rate                            : 48.0 kHz
  40. Frame rate                               : 93.750 FPS (512 SPF)
  41. Bit depth                                : 24 bits
  42. Compression mode                         : Lossy
  43. Stream size                              : 1.01 GiB (13%)
  44. Title                                    : Ready.or.Not.2019.1080p.BluRay.x264.DTS-CHD
  45. Language                                 : English
  46. Default                                  : Yes
  47. Forced                                   : No

  48. Text
  49. ID                                       : 3
  50. Format                                   : UTF-8
  51. Codec ID                                 : S_TEXT/UTF8
  52. Codec ID/Info                            : UTF-8 Plain Text
  53. Duration                                 : 1 h 33 min
  54. Bit rate                                 : 51 b/s
  55. Count of elements                        : 1167
  56. Stream size                              : 35.4 KiB (0%)
  57. Language                                 : English
  58. Default                                  : Yes
  59. Forced                                   : No
復制代碼









分享到:  QQ好友和群QQ好友和群
收藏收藏
VIP會員免費任意下載本站所有資源!---點擊開通
回復

使用道具 舉報

級別:普通觀眾 Lv.2

注冊時間
2019-3-31
最后登錄
2019-12-9
聽眾
8
收聽
0
主題
0
藍光幣
2 枚
貢獻
0 點
沙發
發表于 2019-11-23 15:33:54 | 只看該作者

樓主太厲害了!樓主,電影應該很好看我覺得中國高清電影網真是個好地方!
VIP會員免費任意下載本站所有資源!---點擊開通
回復

使用道具 舉報

級別:初級觀眾 Lv.1

注冊時間
2019-3-25
最后登錄
2019-12-4
聽眾
10
收聽
0
主題
0
藍光幣
6 枚
貢獻
0 點
板凳
發表于 2019-11-23 19:15:21 | 只看該作者
怎么附件下載不了了?!
VIP會員免費任意下載本站所有資源!---點擊開通
回復

使用道具 舉報

級別:普通觀眾 Lv.2

注冊時間
2019-8-22
最后登錄
2019-12-13
聽眾
2
收聽
0
主題
0
藍光幣
51 枚
貢獻
0 點
地板
發表于 2019-11-24 00:04:04 | 只看該作者
樓主發貼辛苦了,謝謝樓主分享!我覺得中國高清電影網是注冊對了!
VIP會員免費任意下載本站所有資源!---點擊開通
回復

使用道具 舉報

級別:初級觀眾 Lv.1

注冊時間
2019-11-27
最后登錄
2019-12-10
聽眾
1
收聽
0
主題
0
藍光幣
0 枚
貢獻
0 點
QQ
5#
發表于 2019-11-28 08:28:29 | 只看該作者

其實我一直覺得樓主的品味不錯!呵呵!中國高清電影網太棒了!
VIP會員免費任意下載本站所有資源!---點擊開通
回復

使用道具 舉報

級別:初級觀眾 Lv.1

注冊時間
2019-11-30
最后登錄
2019-11-30
聽眾
0
收聽
0
主題
0
藍光幣
1 枚
貢獻
0 點
6#
發表于 2019-11-30 02:49:15 | 只看該作者

樓主太厲害了!樓主,電影應該很好看我覺得中國高清電影網真是個好地方!
VIP會員免費任意下載本站所有資源!---點擊開通
回復

使用道具 舉報

級別:初級觀眾 Lv.1

注冊時間
2019-5-6
最后登錄
2019-12-2
聽眾
9
收聽
0
主題
0
藍光幣
1 枚
貢獻
0 點
7#
發表于 2019-12-2 08:23:38 | 只看該作者
感謝分享,電影應該好看
VIP會員免費任意下載本站所有資源!---點擊開通
回復

使用道具 舉報

級別:初級觀眾 Lv.1

注冊時間
2018-8-24
最后登錄
2019-12-4
聽眾
11
收聽
0
主題
0
藍光幣
4 枚
貢獻
0 點
8#
發表于 2019-12-2 20:20:12 | 只看該作者

感謝樓主的無私分享!要想中國高清電影網好 就靠你我他
VIP會員免費任意下載本站所有資源!---點擊開通
回復

使用道具 舉報

級別:初級觀眾 Lv.1

注冊時間
2019-12-2
最后登錄
2019-12-9
聽眾
1
收聽
0
主題
0
藍光幣
5 枚
貢獻
0 點
9#
發表于 2019-12-2 21:32:52 | 只看該作者
樓主太厲害了!樓主,電影應該很好看我覺得中國高清電影網真是個好地方!
VIP會員免費任意下載本站所有資源!---點擊開通
回復

使用道具 舉報

級別:普通觀眾 Lv.2

注冊時間
2019-3-28
最后登錄
2019-12-9
聽眾
10
收聽
0
主題
0
藍光幣
34 枚
貢獻
0 點
QQ
10#
發表于 2019-12-4 09:26:57 | 只看該作者

樓主太厲害了!樓主,電影應該很好看我覺得中國高清電影網真是個好地方!
VIP會員免費任意下載本站所有資源!---點擊開通
回復

使用道具 舉報

懶得打字嘛,點擊右側快捷回復 【右側內容,后臺自定義】
您需要登錄后才可以回帖 登錄 | 立即注冊

本版積分規則

QQ|Archiver|手機版|小黑屋| 中國高清網 |網站地圖

GMT+8, 2019-12-13 15:03 , Processed in 0.209142 second(s), 37 queries .

Powered by HDchina X3.4

Copyright 2017-2019©HDchina.All right reserved

返回頂部 聯系我們
三分彩如何看规律