查看: 118|回復: 1
打印 上一主題 下一主題

[恐怖片] 復仇女神 The.Furies.2019.1080p.BluRay.x264.DTS-HD.MA.5.1-FGT 7.75GB

[復制鏈接]

 成長值: 3420

級別:資源管理組

注冊時間
2017-10-20
最后登錄
2019-12-11
聽眾
1
收聽
0
主題
88399
藍光幣
69949 枚
貢獻
12761 點
跳轉到指定樓層
樓主
發表于 2019-11-23 14:11:24 | 只看該作者 |只看大圖 回帖獎勵 |倒序瀏覽 |閱讀模式


譯  名 復仇女神 / Killer Instinct
片  名 The Furies
年  代 2019
產  地 澳大利亞 Australia
類  別 恐怖
IMDb評分  5.9/10 from 66 users
IMDb鏈接  http://www.imdb.com/title/tt8228172
豆瓣評分 0/10 from 0 users
豆瓣鏈接 https://movie.douban.com/subject/30368050/
導  演 Tony D'Aquino
編  劇 Tony D'Aquino
主  演 艾爾利·多茲 Airlie Dodds
       Linda Ngo
       Taylor Ferguson


標  簽 恐怖 | 澳大利亞電影

簡  介  

  暫無相關劇情介紹
  1. Video
  2. ID                                       : 1
  3. Format                                   : AVC
  4. Format/Info                              : Advanced Video Codec
  5. Format profile                           : [email protected]
  6. Format settings                          : CABAC / 4 Ref Frames
  7. Format settings, CABAC                   : Yes
  8. Format settings, Reference frames        : 4 frames
  9. Codec ID                                 : V_MPEG4/ISO/AVC
  10. Duration                                 : 1 h 22 min
  11. Bit rate                                 : 11.5 Mb/s
  12. Width                                    : 1 920 pixels
  13. Height                                   : 824 pixels
  14. Display aspect ratio                     : 2.35:1
  15. Frame rate mode                          : Constant
  16. Frame rate                               : 23.976 (24000/1001) FPS
  17. Color space                              : YUV
  18. Chroma subsampling                       : 4:2:0
  19. Bit depth                                : 8 bits
  20. Scan type                                : Progressive
  21. Bits/(Pixel*Frame)                       : 0.303
  22. Stream size                              : 6.62 GiB (85%)
  23. Title                                    : The.Furies.2019.1080p.BluRay.x264.DTS-HD.MA.5.1-FGT
  24. Writing library                          : x264 core 148 r2795M aaa9aa8
  25. Encoding settings                        : cabac=1 / ref=4 / deblock=1:-2:-2 / analyse=0x3:0x113 / me=umh / subme=9 / psy=1 / psy_rd=1.00:0.15 / mixed_ref=1 / me_range=16 / chroma_me=1 / trellis=2 / 8x8dct=1 / cqm=0 / deadzone=21,11 / fast_pskip=1 / chroma_qp_offset=-3 / threads=72 / lookahead_threads=3 / sliced_threads=0 / nr=0 / decimate=1 / interlaced=0 / bluray_compat=0 / constrained_intra=0 / bframes=3 / b_pyramid=2 / b_adapt=1 / b_bias=0 / direct=3 / weightb=1 / open_gop=0 / weightp=2 / keyint=250 / keyint_min=25 / scenecut=40 / intra_refresh=0 / rc_lookahead=50 / rc=2pass / mbtree=1 / bitrate=11500 / ratetol=1.0 / qcomp=0.60 / qpmin=0 / qpmax=69 / qpstep=4 / cplxblur=20.0 / qblur=0.5 / vbv_maxrate=31250 / vbv_bufsize=31250 / nal_hrd=none / filler=0 / ip_ratio=1.40 / aq=1:1.00
  26. Default                                  : Yes
  27. Forced                                   : No

  28. Audio
  29. ID                                       : 2
  30. Format                                   : DTS XLL
  31. Format/Info                              : Digital Theater Systems
  32. Commercial name                          : DTS-HD Master Audio
  33. Codec ID                                 : A_DTS
  34. Duration                                 : 1 h 22 min
  35. Bit rate mode                            : Variable
  36. Bit rate                                 : 1 960 kb/s
  37. Channel(s)                               : 6 channels
  38. Channel layout                           : C L R Ls Rs LFE
  39. Sampling rate                            : 48.0 kHz
  40. Frame rate                               : 93.750 FPS (512 SPF)
  41. Bit depth                                : 16 bits
  42. Compression mode                         : Lossless
  43. Stream size                              : 1.13 GiB (15%)
  44. Title                                    : The.Furies.2019.1080p.BluRay.x264.DTS-HD.MA.5.1-FGT
  45. Language                                 : English
  46. Default                                  : Yes
  47. Forced                                   : No

  48. Text
  49. ID                                       : 3
  50. Format                                   : UTF-8
  51. Codec ID                                 : S_TEXT/UTF8
  52. Codec ID/Info                            : UTF-8 Plain Text
  53. Duration                                 : 1 h 22 min
  54. Bit rate                                 : 25 b/s
  55. Count of elements                        : 1043
  56. Stream size                              : 15.5 KiB (0%)
  57. Language                                 : English
  58. Default                                  : Yes
  59. Forced                                   : No

  60. Menu
  61. 00:00:00.000                             : en:Chapter 01
  62. 00:07:37.457                             : en:Chapter 02
  63. 00:11:08.543                             : en:Chapter 03
  64. 00:21:23.240                             : en:Chapter 04
  65. 00:29:15.837                             : en:Chapter 05
  66. 00:38:20.256                             : en:Chapter 06
  67. 00:44:26.163                             : en:Chapter 07
  68. 00:52:32.733                             : en:Chapter 08
  69. 00:58:24.209                             : en:Chapter 09
  70. 01:04:44.631                             : en:Chapter 10
  71. 01:14:33.928                             : en:Chapter 11
  72. 01:18:47.806                             : en:Chapter 12
復制代碼









分享到:  QQ好友和群QQ好友和群
收藏收藏
VIP會員免費任意下載本站所有資源!---點擊開通
回復

使用道具 舉報

級別:群眾演員 Lv.3

注冊時間
2019-10-27
最后登錄
2019-12-10
聽眾
1
收聽
0
主題
0
藍光幣
74 枚
貢獻
0 點
沙發
發表于 2019-11-23 22:28:26 | 只看該作者
樓主發貼辛苦了,謝謝樓主分享!我覺得中國高清電影網是注冊對了!
VIP會員免費任意下載本站所有資源!---點擊開通
回復

使用道具 舉報

懶得打字嘛,點擊右側快捷回復 【右側內容,后臺自定義】
您需要登錄后才可以回帖 登錄 | 立即注冊

本版積分規則

QQ|Archiver|手機版|小黑屋| 中國高清網 |網站地圖

GMT+8, 2019-12-11 00:50 , Processed in 0.176268 second(s), 36 queries .

Powered by HDchina X3.4

Copyright 2017-2019©HDchina.All right reserved

返回頂部 聯系我們
三分彩如何看规律