查看: 41|回復: 0
打印 上一主題 下一主題

[REMUX.HEVC] 陰風陣陣/坐立不安 Suspiria.1977.US.2160p.BluRay.REMUX.HEVC.TrueHD.7.1.Atmos-FGT 65.05GB

[復制鏈接]

 成長值: 3420

級別:資源管理組

注冊時間
2017-10-20
最后登錄
2019-12-11
聽眾
1
收聽
0
主題
88399
藍光幣
69949 枚
貢獻
12761 點
跳轉到指定樓層
樓主
發表于 2019-11-23 14:27:11 | 只看該作者 |只看大圖 回帖獎勵 |倒序瀏覽 |閱讀模式


譯  名 陰風陣陣 / 坐立不安
片  名 Suspiria
年  代 1977
產  地 意大利
類  別 恐怖
語  言 意大利語 / 俄語 / 英語 / 德語 / 拉丁語
上映日期 1977-02-01
IMDb評分  7.4/10 from 71530 users
IMDb鏈接  https://www.imdb.com/title/tt0076786
豆瓣評分 7.4/10 from 11646 users
豆瓣鏈接 https://movie.douban.com/subject/1296332/
片  長 98分鐘
導  演 達里奧·阿基多 Dario Argento
編  劇 達里奧·阿基多 Dario Argento / 達里亞·尼古洛蒂 Daria Nicolodi
主  演 杰西卡·哈珀 Jessica Harper
       斯蒂芬妮婭·卡西尼 Stefania Casini
       Flavio Bucci
       米蓋爾·波斯 Miguel Bosé
       Barbara Magnolfi
       Susanna Javicoli
       Eva Axén
       Rudolf Schündler
       烏多·奇爾 Udo Kier
       阿莉達·瓦莉 Alida Valli
       瓊·貝內特 Joan Bennett
       瑪格麗特·霍洛維茨 Margherita Horowitz
       Jacopo Mariani
       Fulvio Mingozzi
       弗蘭卡·斯坎列蒂 Franca Scagnetti


標  簽 恐怖 | 意大利 | 驚悚 | 經典 | 意大利電影 | 1977 | 1970s | 恐怖片

簡  介  

  在一場瓢潑大雨之中,孱弱的女子蘇西(杰西卡·哈珀 Jessica Harper 飾)孤身一人來到德國,前往那里的芭蕾舞學校學習舞蹈。剛剛抵達的蘇西看到一位女子從學校的大門里狂奔而出,口中念念有詞,隨后消失在了雨幕之中,讓蘇西沒有想到的是,第二天,她便聽聞了這位女子的死訊。
  很快,蘇西便發現這所學校里的同學并不如她想象的那樣友善,她的室友更是一個唯利是圖的女人,而蘇西結交到的唯一一個朋友,竟然同先前死去的女生是好友。在她的口中,蘇西聽說了學校里女巫作祟詛咒橫行的傳言,而接連出現的詭異現象亦讓蘇西慢慢察覺到,在這所陰森的學校中,隱藏著不可告人的秘密。
  1. Video
  2. ID                                       : 1
  3. Format                                   : HEVC
  4. Format/Info                              : High Efficiency Video Coding
  5. Format profile                           : Main [email protected]@High
  6. HDR format                               : SMPTE ST 2086, HDR10 compatible
  7. Codec ID                                 : V_MPEGH/ISO/HEVC
  8. Duration                                 : 1 h 38 min
  9. Bit rate                                 : 80.1 Mb/s
  10. Width                                    : 3 840 pixels
  11. Height                                   : 2 160 pixels
  12. Display aspect ratio                     : 16:9
  13. Frame rate mode                          : Constant
  14. Frame rate                               : 23.976 (24000/1001) FPS
  15. Color space                              : YUV
  16. Chroma subsampling                       : 4:2:0 (Type 2)
  17. Bit depth                                : 10 bits
  18. Bits/(Pixel*Frame)                       : 0.403
  19. Stream size                              : 55.3 GiB (85%)
  20. Title                                    : Suspiria.1977.US.2160p.BluRay.REMUX.HEVC.TrueHD.7.1.Atmos-FGT
  21. Writing library                          : x265 3.1b36c03e4e771:[Windows][GCC 6.3.0][64 bit] 10bit
  22. Encoding settings                        : cpuid=1111039 / frame-threads=6 / numa-pools=16,16 / wpp / no-pmode / no-pme / no-psnr / no-ssim / log-level=2 / input-csp=1 / input-res=3840x2160 / interlace=0 / total-frames=2150 / level-idc=51 / high-tier=1 / uhd-bd=1 / ref=4 / no-allow-non-conformance / repeat-headers / annexb / aud / hrd / info / hash=0 / no-temporal-layers / no-open-gop / min-keyint=1 / keyint=24 / gop-lookahead=0 / bframes=3 / b-adapt=2 / b-pyramid / bframe-bias=0 / rc-lookahead=24 / lookahead-slices=4 / scenecut=100 / radl=0 / no-splice / no-intra-refresh / ctu=64 / min-cu-size=8 / rect / no-amp / max-tu-size=32 / tu-inter-depth=1 / tu-intra-depth=1 / limit-tu=0 / rdoq-level=2 / dynamic-rd=0.00 / no-ssim-rd / signhide / no-tskip / nr-intra=0 / nr-inter=0 / no-constrained-intra / no-strong-intra-smoothing / max-merge=3 / limit-refs=3 / limit-modes / me=3 / subme=3 / merange=57 / temporal-mvp / weightp / no-weightb / no-analyze-src-pics / deblock=0:0 / no-sao / no-sao-non-deblock / rd=4 / no-early-skip / no-rskip / no-fast-intra / no-tskip-fast / cu-lossless / no-b-intra / no-splitrd-skip / rdpenalty=0 / psy-rd=2.00 / psy-rdoq=1.00 / no-rd-refine / no-lossless / cbqpoffs=0 / crqpoffs=0 / rc=cbr / bitrate=82000 / qcomp=0.60 / qpstep=1 / stats-write=0 / stats-read=2 / cplxblur=20.0 / qblur=0.5 / vbv-maxrate=82000 / vbv-bufsize=100000 / vbv-init=0.9 / vbv-end=0.9 / vbv-end-fr-adj=0.0 / ipratio=2.00 / pbratio=1.00 / aq-mode=2 / aq-strength=1.00 / no-cutree / zone-count=0 / no-strict-cbr / qg-size=32 / no-rc-grain / qpmax=69 / qpmin=0 / no-const-vbv / sar=1 / overscan=0 / videoformat=5 / range=0 / colorprim=9 / transfer=16 / colormatrix=9 / chromaloc=1 / chromaloc-top=2 / chromaloc-bottom=2 / display-window=0 / master-display=G(13250,34500)B(7500,3000)R(34000,16000)WP(15635,16450)L(10000000,1)cll=1000,400 / min-luma=0 / max-luma=1023 / log2-max-poc-lsb=8 / vui-timing-info / vui-hrd-info / slices=1 / no-opt-qp-pps / no-opt-ref-list-length-pps / no-multi-pass-opt-rps / scenecut-bias=0.05 / no-opt-cu-delta-qp / no-aq-motion / hdr / hdr-opt / no-dhdr10-opt / no-idr-recovery-sei / analysis-reuse-level=5 / scale-factor=0 / refine-intra=0 / refine-inter=0 / refine-mv=0 / refine-ctu-distortion=0 / no-limit-sao / ctu-info=0 / no-lowpass-dct / refine-analysis-type=0 / copy-pic=1 / max-ausize-factor=1.0 / no-dynamic-refine / no-single-sei / no-hevc-aq / no-svt / no-field / qp-adaptation-range=1.00
  23. Language                                 : English
  24. Default                                  : No
  25. Forced                                   : No
  26. Color range                              : Limited
  27. Color primaries                          : BT.2020
  28. Transfer characteristics                 : PQ
  29. Matrix coefficients                      : BT.2020 non-constant
  30. Mastering display color primaries        : Display P3
  31. Mastering display luminance              : min: 0.0001 cd/m2, max: 1000 cd/m2
  32. Maximum Content Light Level              : 1000 cd/m2
  33. Maximum Frame-Average Light Level        : 400 cd/m2

  34. Audio #1
  35. ID                                       : 2
  36. Format                                   : MLP FBA 16-ch
  37. Format/Info                              : Meridian Lossless Packing FBA with 16-channel presentation
  38. Commercial name                          : Dolby TrueHD with Dolby Atmos
  39. Codec ID                                 : A_TRUEHD
  40. Duration                                 : 1 h 38 min
  41. Bit rate mode                            : Variable
  42. Bit rate                                 : 4 156 kb/s
  43. Maximum bit rate                         : 6 309 kb/s
  44. Channel(s)                               : 8 channels
  45. Channel layout                           : L R C LFE Ls Rs Lb Rb
  46. Sampling rate                            : 48.0 kHz
  47. Frame rate                               : 1 200.000 FPS (40 SPF)
  48. Compression mode                         : Lossless
  49. Stream size                              : 2.87 GiB (4%)
  50. Title                                    : Suspiria.1977.US.2160p.BluRay.REMUX.HEVC.TrueHD.7.1.Atmos-FGT
  51. Language                                 : English
  52. Default                                  : Yes
  53. Forced                                   : No
  54. Number of dynamic objects                : 11
  55. Bed channel count                        : 1 channel
  56. Bed channel configuration                : LFE

  57. Audio #2
  58. ID                                       : 3
  59. Format                                   : AC-3
  60. Format/Info                              : Audio Coding 3
  61. Commercial name                          : Dolby Digital
  62. Codec ID                                 : A_AC3
  63. Duration                                 : 1 h 38 min
  64. Bit rate mode                            : Constant
  65. Bit rate                                 : 640 kb/s
  66. Channel(s)                               : 6 channels
  67. Channel layout                           : L R C LFE Ls Rs
  68. Sampling rate                            : 48.0 kHz
  69. Frame rate                               : 31.250 FPS (1536 SPF)
  70. Bit depth                                : 16 bits
  71. Compression mode                         : Lossy
  72. Stream size                              : 452 MiB (1%)
  73. Title                                    : Suspiria.1977.US.2160p.BluRay.REMUX.HEVC.TrueHD.7.1.Atmos-FGT
  74. Language                                 : English
  75. Service kind                             : Complete Main
  76. Default                                  : No
  77. Forced                                   : No

  78. Audio #3
  79. ID                                       : 4
  80. Format                                   : DTS XLL
  81. Format/Info                              : Digital Theater Systems
  82. Commercial name                          : DTS-HD Master Audio
  83. Codec ID                                 : A_DTS
  84. Duration                                 : 1 h 38 min
  85. Bit rate mode                            : Variable
  86. Bit rate                                 : 4 828 kb/s
  87. Channel(s)                               : 4 channels
  88. Channel layout                           : C L R Cb
  89. Sampling rate                            : 96.0 kHz
  90. Frame rate                               : 187.500 FPS (512 SPF)
  91. Bit depth                                : 24 bits
  92. Compression mode                         : Lossless
  93. Stream size                              : 3.33 GiB (5%)
  94. Title                                    : Suspiria.1977.US.2160p.BluRay.REMUX.HEVC.TrueHD.7.1.Atmos-FGT
  95. Language                                 : English
  96. Default                                  : No
  97. Forced                                   : No

  98. Audio #4
  99. ID                                       : 5
  100. Format                                   : DTS XLL
  101. Format/Info                              : Digital Theater Systems
  102. Commercial name                          : DTS-HD Master Audio
  103. Codec ID                                 : A_DTS
  104. Duration                                 : 1 h 38 min
  105. Bit rate mode                            : Variable
  106. Bit rate                                 : 4 034 kb/s
  107. Channel(s)                               : 6 channels
  108. Channel layout                           : C L R Ls Rs LFE
  109. Sampling rate                            : 48.0 kHz
  110. Frame rate                               : 93.750 FPS (512 SPF)
  111. Bit depth                                : 24 bits
  112. Compression mode                         : Lossless
  113. Stream size                              : 2.78 GiB (4%)
  114. Title                                    : Suspiria.1977.US.2160p.BluRay.REMUX.HEVC.TrueHD.7.1.Atmos-FGT
  115. Language                                 : Italian
  116. Default                                  : No
  117. Forced                                   : No

  118. Audio #5
  119. ID                                       : 6
  120. Format                                   : AC-3
  121. Format/Info                              : Audio Coding 3
  122. Commercial name                          : Dolby Digital
  123. Codec ID                                 : A_AC3
  124. Duration                                 : 1 h 38 min
  125. Bit rate mode                            : Constant
  126. Bit rate                                 : 192 kb/s
  127. Channel(s)                               : 2 channels
  128. Channel layout                           : L R
  129. Sampling rate                            : 48.0 kHz
  130. Frame rate                               : 31.250 FPS (1536 SPF)
  131. Bit depth                                : 16 bits
  132. Compression mode                         : Lossy
  133. Stream size                              : 136 MiB (0%)
  134. Title                                    : Suspiria.1977.US.2160p.BluRay.REMUX.HEVC.TrueHD.7.1.Atmos-FGT
  135. Language                                 : English
  136. Service kind                             : Complete Main
  137. Default                                  : No
  138. Forced                                   : No

  139. Audio #6
  140. ID                                       : 7
  141. Format                                   : AC-3
  142. Format/Info                              : Audio Coding 3
  143. Commercial name                          : Dolby Digital
  144. Codec ID                                 : A_AC3
  145. Duration                                 : 1 h 38 min
  146. Bit rate mode                            : Constant
  147. Bit rate                                 : 192 kb/s
  148. Channel(s)                               : 2 channels
  149. Channel layout                           : L R
  150. Sampling rate                            : 48.0 kHz
  151. Frame rate                               : 31.250 FPS (1536 SPF)
  152. Bit depth                                : 16 bits
  153. Compression mode                         : Lossy
  154. Stream size                              : 136 MiB (0%)
  155. Title                                    : Suspiria.1977.US.2160p.BluRay.REMUX.HEVC.TrueHD.7.1.Atmos-FGT
  156. Language                                 : English
  157. Service kind                             : Complete Main
  158. Default                                  : No
  159. Forced                                   : No

  160. Text #1
  161. ID                                       : 8
  162. Format                                   : UTF-8
  163. Codec ID                                 : S_TEXT/UTF8
  164. Codec ID/Info                            : UTF-8 Plain Text
  165. Duration                                 : 1 h 33 min
  166. Bit rate                                 : 41 b/s
  167. Count of elements                        : 765
  168. Stream size                              : 28.5 KiB (0%)
  169. Title                                    : English-SRT
  170. Language                                 : English
  171. Default                                  : Yes
  172. Forced                                   : No

  173. Text #2
  174. ID                                       : 9
  175. Format                                   : PGS
  176. Muxing mode                              : zlib
  177. Codec ID                                 : S_HDMV/PGS
  178. Codec ID/Info                            : Picture based subtitle format used on BDs/HD-DVDs
  179. Duration                                 : 1 h 37 min
  180. Bit rate                                 : 28.6 kb/s
  181. Count of elements                        : 1746
  182. Stream size                              : 19.9 MiB (0%)
  183. Title                                    : English-PGS
  184. Language                                 : English
  185. Default                                  : No
  186. Forced                                   : No

  187. Text #3
  188. ID                                       : 10
  189. Format                                   : PGS
  190. Muxing mode                              : zlib
  191. Codec ID                                 : S_HDMV/PGS
  192. Codec ID/Info                            : Picture based subtitle format used on BDs/HD-DVDs
  193. Duration                                 : 1 h 36 min
  194. Bit rate                                 : 24.3 kb/s
  195. Count of elements                        : 1440
  196. Stream size                              : 16.7 MiB (0%)
  197. Title                                    : English-PGS
  198. Language                                 : English
  199. Default                                  : No
  200. Forced                                   : No

  201. Menu
  202. 00:00:00.000                             : en:Chapter 01
  203. 00:07:55.016                             : en:Chapter 02
  204. 00:14:15.938                             : en:Chapter 03
  205. 00:21:17.693                             : en:Chapter 04
  206. 00:30:00.256                             : en:Chapter 05
  207. 00:37:44.387                             : en:Chapter 06
  208. 00:46:22.946                             : en:Chapter 07
  209. 00:55:50.347                             : en:Chapter 08
  210. 01:04:16.602                             : en:Chapter 09
  211. 01:08:52.670                             : en:Chapter 10
  212. 01:16:36.717                             : en:Chapter 11
  213. 01:20:30.700                             : en:Chapter 12
  214. 01:27:33.748                             : en:Chapter 13
  215. 01:32:09.023                             : en:Chapter 14
  216. 01:37:10.991                             : en:Chapter 15
復制代碼









本帖隱藏的下載地址需要VIP會員才可瀏覽,您需要升級才可瀏覽,點擊這里升級VIP
分享到:  QQ好友和群QQ好友和群
收藏收藏
VIP會員免費任意下載本站所有資源!---點擊開通
回復

使用道具 舉報

懶得打字嘛,點擊右側快捷回復 【右側內容,后臺自定義】
您需要登錄后才可以回帖 登錄 | 立即注冊

本版積分規則

QQ|Archiver|手機版|小黑屋| 中國高清網 |網站地圖

GMT+8, 2019-12-11 01:13 , Processed in 0.210021 second(s), 36 queries .

Powered by HDchina X3.4

Copyright 2017-2019©HDchina.All right reserved

返回頂部 聯系我們
三分彩如何看规律