查看: 120|回復: 1
打印 上一主題 下一主題

[REMUX.HEVC] 權力的游戲 第一季 Game.of.Thrones.S08.2160p.BluRay.REMUX.HEVC.DTS-HD.MA.TrueHD.7.1.Atmos-FGT 225.85GB

[復制鏈接]

 成長值: 3420

級別:資源管理組

注冊時間
2017-10-20
最后登錄
2019-12-11
聽眾
1
收聽
0
主題
88399
藍光幣
69953 枚
貢獻
12761 點
跳轉到指定樓層
樓主
發表于 2019-11-23 14:32:57 | 只看該作者 |只看大圖 回帖獎勵 |倒序瀏覽 |閱讀模式


譯  名 權力的游戲 第一季 / A Song of Ice and Fire: Game of Thrones Season 1 / 冰與火之歌:權力的游戲 第一季 / 王座游戲 第一季
片  名 Game of Thrones Season 1
年  代 2011
產  地 美國 / 英國
類  別 劇情 / 奇幻 / 冒險
語  言 英語 / 多斯拉克語
上映日期 2011-04-17(美國)
IMDb評分  9.5/10 from 1508232 users
IMDb鏈接  http://www.imdb.com/title/tt0944947
豆瓣評分 9.4/10 from 247468 users
豆瓣鏈接 https://movie.douban.com/subject/3016187/
集  數 10
片  長 60分鐘
導  演 蒂莫西·范·帕騰 Timothy Van Patten / 布萊恩·柯克 Brian Kirk / 丹尼爾·米納漢 Daniel Minahan / 阿蘭·泰勒 Alan Taylor
編  劇 戴維·貝尼奧夫 David Benioff / D·B·威斯 D.B. Weiss / George R.R. Martin (novel)
主  演 伊薩克·亨普斯特德-懷特 Isaac Hempstead-Wright
      查里斯·丹斯 Charles Dance
      John C. Bradley
      羅恩·多納基 Ron Donachie
      伊恩·麥克爾希尼 Ian McElhinney
      肖恩·賓 Sean Bean
      米歇爾·費爾利 Michelle Fairley
      艾米莉亞·克拉克 Emilia Clarke
      伊恩·格雷 Iain Glen
      基特·哈靈頓 Kit Harington
      尼可拉·科斯特-瓦爾道 Nikolaj Coster-Waldau


標  簽 美劇 | 史詩 | 奇幻 | HBO | 魔幻 | 美國 | 電視劇 | 2011

簡  介  

  《權力的游戲》是一部中世紀史詩奇幻題材的電視連續劇,該劇以美國作家喬治·R·R·馬丁的奇幻巨作《冰與火之歌》七部曲為基礎改編創作。
故事背景中虛構的世界,分為兩片大陸:位于西面的“日落國度”維斯特洛;位于東面的類似亞歐大陸。維斯特洛大陸邊境處發現遠古傳說中早已滅絕的生物開始,危險也漸漸在靠近這里。這片大陸的臨冬城主暨北境統領艾德史塔克家族也迎來了老友兼國王勞勃·拜拉席恩的來訪。國王希望艾德·史塔克(肖恩·賓 Sean Bean 飾)能擔任首相一職,對抗企圖奪取鐵王座的叛軍。危情一觸即發,整個王國看似平和的表面下卻是波濤暗涌。權高位重的拜拉席恩家族、勇敢善良的史塔克家族、企圖謀取王位的坦格利安家族、有著不可告人秘密的蘭尼斯特家族。這些家族各懷鬼胎,這個國家將會陷入一場混戰.....

獲獎情況  

  第69屆金球獎(2012)
  電視類 最佳劇情類劇集(提名)
  電視類 最佳男配角 彼特·丁拉基

  第12屆美國視覺效果協會獎(2014)
  最佳廣告/廣播節目CG背景(提名) Patrick Zentis / Mayur Patel

  第12屆美國電影學會獎(2011)
  年度佳劇



  1. Video #1
  2. ID                                       : 1
  3. Format                                   : HEVC
  4. Format/Info                              : High Efficiency Video Coding
  5. Format profile                           : Main [email protected]@High
  6. HDR format                               : SMPTE ST 2086, HDR10 compatible
  7. Codec ID                                 : V_MPEGH/ISO/HEVC
  8. Duration                                 : 1 h 18 min
  9. Bit rate                                 : 82.1 Mb/s
  10. Width                                    : 3 840 pixels
  11. Height                                   : 2 160 pixels
  12. Display aspect ratio                     : 16:9
  13. Frame rate mode                          : Constant
  14. Frame rate                               : 23.976 (24000/1001) FPS
  15. Color space                              : YUV
  16. Chroma subsampling                       : 4:2:0 (Type 2)
  17. Bit depth                                : 10 bits
  18. Bits/(Pixel*Frame)                       : 0.413
  19. Stream size                              : 45.1 GiB (82%)
  20. Title                                    : Game.of.Thrones.S08E06.The.Iron.Throne.2160p.BluRay.REMUX.HEVC.DTS-HD.MA.TrueHD.7.1.Atmos-FGT
  21. Language                                 : English
  22. Default                                  : Yes
  23. Forced                                   : No
  24. Color range                              : Limited
  25. Color primaries                          : BT.2020
  26. Transfer characteristics                 : PQ
  27. Matrix coefficients                      : BT.2020 non-constant
  28. Mastering display color primaries        : BT.2020
  29. Mastering display luminance              : min: 0.0001 cd/m2, max: 1000 cd/m2

  30. Video #2
  31. ID                                       : 2
  32. Format                                   : HEVC
  33. Format/Info                              : High Efficiency Video Coding
  34. Format profile                           : Main [email protected]@High
  35. HDR format                               : SMPTE ST 2086, HDR10 compatible
  36. Codec ID                                 : V_MPEGH/ISO/HEVC
  37. Duration                                 : 1 h 18 min
  38. Bit rate                                 : 5 326 kb/s
  39. Width                                    : 1 920 pixels
  40. Height                                   : 1 080 pixels
  41. Display aspect ratio                     : 16:9
  42. Frame rate mode                          : Constant
  43. Frame rate                               : 23.976 (24000/1001) FPS
  44. Color space                              : YUV
  45. Chroma subsampling                       : 4:2:0 (Type 2)
  46. Bit depth                                : 10 bits
  47. Bits/(Pixel*Frame)                       : 0.107
  48. Stream size                              : 2.92 GiB (5%)
  49. Title                                    : Game.of.Thrones.S08E06.The.Iron.Throne.2160p.BluRay.REMUX.HEVC.DTS-HD.MA.TrueHD.7.1.Atmos-FGT
  50. Language                                 : English
  51. Default                                  : No
  52. Forced                                   : No
  53. Color range                              : Limited
  54. Color primaries                          : BT.2020
  55. Transfer characteristics                 : PQ
  56. Matrix coefficients                      : BT.2020 non-constant
  57. Mastering display color primaries        : BT.2020
  58. Mastering display luminance              : min: 0.0001 cd/m2, max: 1000 cd/m2

  59. Audio #1
  60. ID                                       : 3
  61. Format                                   : MLP FBA 16-ch
  62. Format/Info                              : Meridian Lossless Packing FBA with 16-channel presentation
  63. Commercial name                          : Dolby TrueHD with Dolby Atmos
  64. Codec ID                                 : A_TRUEHD
  65. Duration                                 : 1 h 18 min
  66. Bit rate mode                            : Variable
  67. Bit rate                                 : 3 463 kb/s
  68. Maximum bit rate                         : 5 541 kb/s
  69. Channel(s)                               : 8 channels
  70. Channel layout                           : L R C LFE Ls Rs Lb Rb
  71. Sampling rate                            : 48.0 kHz
  72. Frame rate                               : 1 200.000 FPS (40 SPF)
  73. Compression mode                         : Lossless
  74. Stream size                              : 1.90 GiB (3%)
  75. Title                                    : Game.of.Thrones.S08E06.The.Iron.Throne.2160p.BluRay.REMUX.HEVC.DTS-HD.MA.TrueHD.7.1.Atmos-FGT
  76. Language                                 : English
  77. Default                                  : Yes
  78. Forced                                   : No
  79. Number of dynamic objects                : 15
  80. Bed channel count                        : 1 channel
  81. Bed channel configuration                : LFE

  82. Audio #2
  83. ID                                       : 4
  84. Format                                   : DTS XLL
  85. Format/Info                              : Digital Theater Systems
  86. Commercial name                          : DTS-HD Master Audio
  87. Codec ID                                 : A_DTS
  88. Duration                                 : 1 h 18 min
  89. Bit rate mode                            : Variable
  90. Bit rate                                 : 3 830 kb/s
  91. Channel(s)                               : 8 channels
  92. Channel layout                           : C L R LFE Lb Rb Lss Rss
  93. Sampling rate                            : 48.0 kHz
  94. Frame rate                               : 93.750 FPS (512 SPF)
  95. Bit depth                                : 24 bits
  96. Compression mode                         : Lossless
  97. Stream size                              : 2.10 GiB (4%)
  98. Title                                    : Game.of.Thrones.S08E06.The.Iron.Throne.2160p.BluRay.REMUX.HEVC.DTS-HD.MA.TrueHD.7.1.Atmos-FGT
  99. Language                                 : English
  100. Default                                  : No
  101. Forced                                   : No

  102. Audio #3
  103. ID                                       : 5
  104. Format                                   : AC-3
  105. Format/Info                              : Audio Coding 3
  106. Commercial name                          : Dolby Digital
  107. Codec ID                                 : A_AC3
  108. Duration                                 : 1 h 18 min
  109. Bit rate mode                            : Constant
  110. Bit rate                                 : 640 kb/s
  111. Channel(s)                               : 6 channels
  112. Channel layout                           : L R C LFE Ls Rs
  113. Sampling rate                            : 48.0 kHz
  114. Frame rate                               : 31.250 FPS (1536 SPF)
  115. Bit depth                                : 16 bits
  116. Compression mode                         : Lossy
  117. Stream size                              : 360 MiB (1%)
  118. Title                                    : Game.of.Thrones.S08E06.The.Iron.Throne.2160p.BluRay.REMUX.HEVC.DTS-HD.MA.TrueHD.7.1.Atmos-FGT
  119. Language                                 : English
  120. Service kind                             : Complete Main
  121. Default                                  : No
  122. Forced                                   : No

  123. Audio #4
  124. ID                                       : 6
  125. Format                                   : AC-3
  126. Format/Info                              : Audio Coding 3
  127. Commercial name                          : Dolby Digital
  128. Codec ID                                 : A_AC3
  129. Duration                                 : 1 h 18 min
  130. Bit rate mode                            : Constant
  131. Bit rate                                 : 640 kb/s
  132. Channel(s)                               : 6 channels
  133. Channel layout                           : L R C LFE Ls Rs
  134. Sampling rate                            : 48.0 kHz
  135. Frame rate                               : 31.250 FPS (1536 SPF)
  136. Bit depth                                : 16 bits
  137. Compression mode                         : Lossy
  138. Delay relative to video                  : 2 s 2 ms
  139. Stream size                              : 360 MiB (1%)
  140. Title                                    : Game.of.Thrones.S08E06.The.Iron.Throne.2160p.BluRay.REMUX.HEVC.DTS-HD.MA.TrueHD.7.1.Atmos-FGT
  141. Language                                 : English
  142. Service kind                             : Complete Main
  143. Default                                  : No
  144. Forced                                   : No

  145. Audio #5
  146. ID                                       : 7
  147. Format                                   : AC-3
  148. Format/Info                              : Audio Coding 3
  149. Commercial name                          : Dolby Digital
  150. Codec ID                                 : A_AC3
  151. Duration                                 : 1 h 18 min
  152. Bit rate mode                            : Constant
  153. Bit rate                                 : 448 kb/s
  154. Channel(s)                               : 6 channels
  155. Channel layout                           : L R C LFE Ls Rs
  156. Sampling rate                            : 48.0 kHz
  157. Frame rate                               : 31.250 FPS (1536 SPF)
  158. Bit depth                                : 16 bits
  159. Compression mode                         : Lossy
  160. Delay relative to video                  : 2 s 2 ms
  161. Stream size                              : 252 MiB (0%)
  162. Title                                    : Game.of.Thrones.S08E06.The.Iron.Throne.2160p.BluRay.REMUX.HEVC.DTS-HD.MA.TrueHD.7.1.Atmos-FGT
  163. Language                                 : French
  164. Service kind                             : Complete Main
  165. Default                                  : No
  166. Forced                                   : No

  167. Audio #6
  168. ID                                       : 8
  169. Format                                   : AC-3
  170. Format/Info                              : Audio Coding 3
  171. Commercial name                          : Dolby Digital
  172. Codec ID                                 : A_AC3
  173. Duration                                 : 1 h 18 min
  174. Bit rate mode                            : Constant
  175. Bit rate                                 : 256 kb/s
  176. Channel(s)                               : 2 channels
  177. Channel layout                           : L R
  178. Sampling rate                            : 48.0 kHz
  179. Frame rate                               : 31.250 FPS (1536 SPF)
  180. Bit depth                                : 16 bits
  181. Compression mode                         : Lossy
  182. Delay relative to video                  : 2 s 2 ms
  183. Stream size                              : 144 MiB (0%)
  184. Title                                    : Game.of.Thrones.S08E06.The.Iron.Throne.2160p.BluRay.REMUX.HEVC.DTS-HD.MA.TrueHD.7.1.Atmos-FGT
  185. Language                                 : Spanish
  186. Service kind                             : Complete Main
  187. Default                                  : No
  188. Forced                                   : No

  189. Audio #7
  190. ID                                       : 9
  191. Format                                   : AC-3
  192. Format/Info                              : Audio Coding 3
  193. Commercial name                          : Dolby Digital
  194. Codec ID                                 : A_AC3
  195. Duration                                 : 1 h 18 min
  196. Bit rate mode                            : Constant
  197. Bit rate                                 : 448 kb/s
  198. Channel(s)                               : 6 channels
  199. Channel layout                           : L R C LFE Ls Rs
  200. Sampling rate                            : 48.0 kHz
  201. Frame rate                               : 31.250 FPS (1536 SPF)
  202. Bit depth                                : 16 bits
  203. Compression mode                         : Lossy
  204. Delay relative to video                  : 2 s 2 ms
  205. Stream size                              : 252 MiB (0%)
  206. Title                                    : Game.of.Thrones.S08E06.The.Iron.Throne.2160p.BluRay.REMUX.HEVC.DTS-HD.MA.TrueHD.7.1.Atmos-FGT
  207. Language                                 : Spanish
  208. Service kind                             : Complete Main
  209. Default                                  : No
  210. Forced                                   : No

  211. Audio #8
  212. ID                                       : 10
  213. Format                                   : AC-3
  214. Format/Info                              : Audio Coding 3
  215. Commercial name                          : Dolby Digital
  216. Codec ID                                 : A_AC3
  217. Duration                                 : 1 h 18 min
  218. Bit rate mode                            : Constant
  219. Bit rate                                 : 448 kb/s
  220. Channel(s)                               : 6 channels
  221. Channel layout                           : L R C LFE Ls Rs
  222. Sampling rate                            : 48.0 kHz
  223. Frame rate                               : 31.250 FPS (1536 SPF)
  224. Bit depth                                : 16 bits
  225. Compression mode                         : Lossy
  226. Delay relative to video                  : 2 s 2 ms
  227. Stream size                              : 252 MiB (0%)
  228. Title                                    : Game.of.Thrones.S08E06.The.Iron.Throne.2160p.BluRay.REMUX.HEVC.DTS-HD.MA.TrueHD.7.1.Atmos-FGT
  229. Language                                 : German
  230. Service kind                             : Complete Main
  231. Default                                  : No
  232. Forced                                   : No

  233. Audio #9
  234. ID                                       : 11
  235. Format                                   : AC-3
  236. Format/Info                              : Audio Coding 3
  237. Commercial name                          : Dolby Digital
  238. Codec ID                                 : A_AC3
  239. Duration                                 : 1 h 18 min
  240. Bit rate mode                            : Constant
  241. Bit rate                                 : 448 kb/s
  242. Channel(s)                               : 6 channels
  243. Channel layout                           : L R C LFE Ls Rs
  244. Sampling rate                            : 48.0 kHz
  245. Frame rate                               : 31.250 FPS (1536 SPF)
  246. Bit depth                                : 16 bits
  247. Compression mode                         : Lossy
  248. Delay relative to video                  : 2 s 2 ms
  249. Stream size                              : 252 MiB (0%)
  250. Title                                    : Game.of.Thrones.S08E06.The.Iron.Throne.2160p.BluRay.REMUX.HEVC.DTS-HD.MA.TrueHD.7.1.Atmos-FGT
  251. Language                                 : Italian
  252. Service kind                             : Complete Main
  253. Default                                  : No
  254. Forced                                   : No

  255. Audio #10
  256. ID                                       : 12
  257. Format                                   : AC-3
  258. Format/Info                              : Audio Coding 3
  259. Commercial name                          : Dolby Digital
  260. Codec ID                                 : A_AC3
  261. Duration                                 : 1 h 18 min
  262. Bit rate mode                            : Constant
  263. Bit rate                                 : 256 kb/s
  264. Channel(s)                               : 2 channels
  265. Channel layout                           : L R
  266. Sampling rate                            : 48.0 kHz
  267. Frame rate                               : 31.250 FPS (1536 SPF)
  268. Bit depth                                : 16 bits
  269. Compression mode                         : Lossy
  270. Delay relative to video                  : 2 s 2 ms
  271. Stream size                              : 144 MiB (0%)
  272. Title                                    : Game.of.Thrones.S08E06.The.Iron.Throne.2160p.BluRay.REMUX.HEVC.DTS-HD.MA.TrueHD.7.1.Atmos-FGT
  273. Language                                 : Portuguese
  274. Service kind                             : Complete Main
  275. Default                                  : No
  276. Forced                                   : No

  277. Audio #11
  278. ID                                       : 13
  279. Format                                   : AC-3
  280. Format/Info                              : Audio Coding 3
  281. Commercial name                          : Dolby Digital
  282. Codec ID                                 : A_AC3
  283. Duration                                 : 1 h 18 min
  284. Bit rate mode                            : Constant
  285. Bit rate                                 : 256 kb/s
  286. Channel(s)                               : 2 channels
  287. Channel layout                           : L R
  288. Sampling rate                            : 48.0 kHz
  289. Frame rate                               : 31.250 FPS (1536 SPF)
  290. Bit depth                                : 16 bits
  291. Compression mode                         : Lossy
  292. Delay relative to video                  : 2 s 2 ms
  293. Stream size                              : 144 MiB (0%)
  294. Title                                    : Game.of.Thrones.S08E06.The.Iron.Throne.2160p.BluRay.REMUX.HEVC.DTS-HD.MA.TrueHD.7.1.Atmos-FGT
  295. Language                                 : Czech
  296. Service kind                             : Complete Main
  297. Default                                  : No
  298. Forced                                   : No

  299. Audio #12
  300. ID                                       : 14
  301. Format                                   : AC-3
  302. Format/Info                              : Audio Coding 3
  303. Commercial name                          : Dolby Digital
  304. Codec ID                                 : A_AC3
  305. Duration                                 : 1 h 18 min
  306. Bit rate mode                            : Constant
  307. Bit rate                                 : 256 kb/s
  308. Channel(s)                               : 2 channels
  309. Channel layout                           : L R
  310. Sampling rate                            : 48.0 kHz
  311. Frame rate                               : 31.250 FPS (1536 SPF)
  312. Bit depth                                : 16 bits
  313. Compression mode                         : Lossy
  314. Delay relative to video                  : 2 s 2 ms
  315. Stream size                              : 144 MiB (0%)
  316. Title                                    : Game.of.Thrones.S08E06.The.Iron.Throne.2160p.BluRay.REMUX.HEVC.DTS-HD.MA.TrueHD.7.1.Atmos-FGT
  317. Language                                 : Hungarian
  318. Service kind                             : Complete Main
  319. Default                                  : No
  320. Forced                                   : No

  321. Audio #13
  322. ID                                       : 15
  323. Format                                   : AC-3
  324. Format/Info                              : Audio Coding 3
  325. Commercial name                          : Dolby Digital
  326. Codec ID                                 : A_AC3
  327. Duration                                 : 1 h 18 min
  328. Bit rate mode                            : Constant
  329. Bit rate                                 : 256 kb/s
  330. Channel(s)                               : 2 channels
  331. Channel layout                           : L R
  332. Sampling rate                            : 48.0 kHz
  333. Frame rate                               : 31.250 FPS (1536 SPF)
  334. Bit depth                                : 16 bits
  335. Compression mode                         : Lossy
  336. Delay relative to video                  : 2 s 2 ms
  337. Stream size                              : 144 MiB (0%)
  338. Title                                    : Game.of.Thrones.S08E06.The.Iron.Throne.2160p.BluRay.REMUX.HEVC.DTS-HD.MA.TrueHD.7.1.Atmos-FGT
  339. Language                                 : Polish
  340. Service kind                             : Complete Main
  341. Default                                  : No
  342. Forced                                   : No

  343. Audio #14
  344. ID                                       : 16
  345. Format                                   : AC-3
  346. Format/Info                              : Audio Coding 3
  347. Commercial name                          : Dolby Digital
  348. Codec ID                                 : A_AC3
  349. Duration                                 : 1 h 18 min
  350. Bit rate mode                            : Constant
  351. Bit rate                                 : 448 kb/s
  352. Channel(s)                               : 6 channels
  353. Channel layout                           : L R C LFE Ls Rs
  354. Sampling rate                            : 48.0 kHz
  355. Frame rate                               : 31.250 FPS (1536 SPF)
  356. Bit depth                                : 16 bits
  357. Compression mode                         : Lossy
  358. Delay relative to video                  : 2 s 2 ms
  359. Stream size                              : 252 MiB (0%)
  360. Title                                    : Game.of.Thrones.S08E06.The.Iron.Throne.2160p.BluRay.REMUX.HEVC.DTS-HD.MA.TrueHD.7.1.Atmos-FGT
  361. Language                                 : Russian
  362. Service kind                             : Complete Main
  363. Default                                  : No
  364. Forced                                   : No

  365. Audio #15
  366. ID                                       : 17
  367. Format                                   : AC-3
  368. Format/Info                              : Audio Coding 3
  369. Commercial name                          : Dolby Digital
  370. Codec ID                                 : A_AC3
  371. Duration                                 : 1 h 18 min
  372. Bit rate mode                            : Constant
  373. Bit rate                                 : 448 kb/s
  374. Channel(s)                               : 6 channels
  375. Channel layout                           : L R C LFE Ls Rs
  376. Sampling rate                            : 48.0 kHz
  377. Frame rate                               : 31.250 FPS (1536 SPF)
  378. Bit depth                                : 16 bits
  379. Compression mode                         : Lossy
  380. Delay relative to video                  : 2 s 2 ms
  381. Stream size                              : 252 MiB (0%)
  382. Title                                    : Game.of.Thrones.S08E06.The.Iron.Throne.2160p.BluRay.REMUX.HEVC.DTS-HD.MA.TrueHD.7.1.Atmos-FGT
  383. Language                                 : English
  384. Service kind                             : Complete Main
  385. Default                                  : No
  386. Forced                                   : No

  387. Audio #16
  388. ID                                       : 18
  389. Format                                   : AC-3
  390. Format/Info                              : Audio Coding 3
  391. Commercial name                          : Dolby Digital
  392. Codec ID                                 : A_AC3
  393. Duration                                 : 1 h 18 min
  394. Bit rate mode                            : Constant
  395. Bit rate                                 : 448 kb/s
  396. Channel(s)                               : 6 channels
  397. Channel layout                           : L R C LFE Ls Rs
  398. Sampling rate                            : 48.0 kHz
  399. Frame rate                               : 31.250 FPS (1536 SPF)
  400. Bit depth                                : 16 bits
  401. Compression mode                         : Lossy
  402. Delay relative to video                  : 2 s 2 ms
  403. Stream size                              : 252 MiB (0%)
  404. Title                                    : Game.of.Thrones.S08E06.The.Iron.Throne.2160p.BluRay.REMUX.HEVC.DTS-HD.MA.TrueHD.7.1.Atmos-FGT
  405. Language                                 : English
  406. Service kind                             : Complete Main
  407. Default                                  : No
  408. Forced                                   : No

  409. Text #1
  410. ID                                       : 19
  411. Format                                   : UTF-8
  412. Codec ID                                 : S_TEXT/UTF8
  413. Codec ID/Info                            : UTF-8 Plain Text
  414. Duration                                 : 45 min 29 s
  415. Bit rate                                 : 2 b/s
  416. Count of elements                        : 27
  417. Stream size                              : 867 Bytes (0%)
  418. Title                                    : English-FORCED-SRT
  419. Language                                 : English
  420. Default                                  : Yes
  421. Forced                                   : Yes

  422. Text #2
  423. ID                                       : 20
  424. Format                                   : UTF-8
  425. Codec ID                                 : S_TEXT/UTF8
  426. Codec ID/Info                            : UTF-8 Plain Text
  427. Duration                                 : 1 h 13 min
  428. Bit rate                                 : 32 b/s
  429. Count of elements                        : 610
  430. Stream size                              : 17.8 KiB (0%)
  431. Title                                    : English-SRT
  432. Language                                 : English
  433. Default                                  : No
  434. Forced                                   : No

  435. Text #3
  436. ID                                       : 21
  437. Format                                   : PGS
  438. Muxing mode                              : zlib
  439. Codec ID                                 : S_HDMV/PGS
  440. Codec ID/Info                            : Picture based subtitle format used on BDs/HD-DVDs
  441. Duration                                 : 1 h 13 min
  442. Bit rate                                 : 22.2 kb/s
  443. Count of elements                        : 1236
  444. Stream size                              : 11.7 MiB (0%)
  445. Title                                    : English-PGS
  446. Language                                 : English
  447. Default                                  : No
  448. Forced                                   : No

  449. Text #4
  450. ID                                       : 22
  451. Format                                   : PGS
  452. Muxing mode                              : zlib
  453. Codec ID                                 : S_HDMV/PGS
  454. Codec ID/Info                            : Picture based subtitle format used on BDs/HD-DVDs
  455. Duration                                 : 45 min 29 s
  456. Bit rate                                 : 1 636 b/s
  457. Count of elements                        : 54
  458. Stream size                              : 545 KiB (0%)
  459. Title                                    : English-FORCED-PGS
  460. Language                                 : English
  461. Default                                  : No
  462. Forced                                   : No

  463. Text #5
  464. ID                                       : 23
  465. Format                                   : PGS
  466. Muxing mode                              : zlib
  467. Codec ID                                 : S_HDMV/PGS
  468. Codec ID/Info                            : Picture based subtitle format used on BDs/HD-DVDs
  469. Duration                                 : 1 h 16 min
  470. Bit rate                                 : 16.9 kb/s
  471. Count of elements                        : 1010
  472. Stream size                              : 9.27 MiB (0%)
  473. Title                                    : French-PGS
  474. Language                                 : French
  475. Default                                  : No
  476. Forced                                   : No

  477. Text #6
  478. ID                                       : 24
  479. Format                                   : PGS
  480. Muxing mode                              : zlib
  481. Codec ID                                 : S_HDMV/PGS
  482. Codec ID/Info                            : Picture based subtitle format used on BDs/HD-DVDs
  483. Duration                                 : 1 h 16 min
  484. Bit rate                                 : 1 452 b/s
  485. Count of elements                        : 82
  486. Stream size                              : 816 KiB (0%)
  487. Title                                    : French-FORCED-PGS
  488. Language                                 : French
  489. Default                                  : No
  490. Forced                                   : No

  491. Text #7
  492. ID                                       : 25
  493. Format                                   : PGS
  494. Muxing mode                              : zlib
  495. Codec ID                                 : S_HDMV/PGS
  496. Codec ID/Info                            : Picture based subtitle format used on BDs/HD-DVDs
  497. Duration                                 : 1 h 10 min
  498. Bit rate                                 : 19.7 kb/s
  499. Count of elements                        : 1056
  500. Stream size                              : 9.96 MiB (0%)
  501. Title                                    : Spanish-PGS
  502. Language                                 : Spanish
  503. Default                                  : No
  504. Forced                                   : No

  505. Text #8
  506. ID                                       : 26
  507. Format                                   : PGS
  508. Muxing mode                              : zlib
  509. Codec ID                                 : S_HDMV/PGS
  510. Codec ID/Info                            : Picture based subtitle format used on BDs/HD-DVDs
  511. Duration                                 : 1 min 17 s
  512. Bit rate                                 : 22.8 kb/s
  513. Count of elements                        : 18
  514. Stream size                              : 214 KiB (0%)
  515. Title                                    : Spanish-FORCED-PGS
  516. Language                                 : Spanish
  517. Default                                  : No
  518. Forced                                   : No

  519. Text #9
  520. ID                                       : 27
  521. Format                                   : PGS
  522. Muxing mode                              : zlib
  523. Codec ID                                 : S_HDMV/PGS
  524. Codec ID/Info                            : Picture based subtitle format used on BDs/HD-DVDs
  525. Duration                                 : 1 h 10 min
  526. Bit rate                                 : 19.6 kb/s
  527. Count of elements                        : 990
  528. Stream size                              : 9.93 MiB (0%)
  529. Title                                    : Spanish-PGS
  530. Language                                 : Spanish
  531. Default                                  : No
  532. Forced                                   : No

  533. Text #10
  534. ID                                       : 28
  535. Format                                   : PGS
  536. Muxing mode                              : zlib
  537. Codec ID                                 : S_HDMV/PGS
  538. Codec ID/Info                            : Picture based subtitle format used on BDs/HD-DVDs
  539. Duration                                 : 50 min 55 s
  540. Bit rate                                 : 2 266 b/s
  541. Count of elements                        : 78
  542. Stream size                              : 846 KiB (0%)
  543. Title                                    : Spanish-FORCED-PGS
  544. Language                                 : Spanish
  545. Default                                  : No
  546. Forced                                   : No

  547. Text #11
  548. ID                                       : 29
  549. Format                                   : PGS
  550. Muxing mode                              : zlib
  551. Codec ID                                 : S_HDMV/PGS
  552. Codec ID/Info                            : Picture based subtitle format used on BDs/HD-DVDs
  553. Duration                                 : 1 h 10 min
  554. Bit rate                                 : 21.3 kb/s
  555. Count of elements                        : 908
  556. Stream size                              : 10.8 MiB (0%)
  557. Title                                    : German-PGS
  558. Language                                 : German
  559. Default                                  : No
  560. Forced                                   : No

  561. Text #12
  562. ID                                       : 30
  563. Format                                   : PGS
  564. Muxing mode                              : zlib
  565. Codec ID                                 : S_HDMV/PGS
  566. Codec ID/Info                            : Picture based subtitle format used on BDs/HD-DVDs
  567. Duration                                 : 50 min 54 s
  568. Bit rate                                 : 1 801 b/s
  569. Count of elements                        : 56
  570. Stream size                              : 672 KiB (0%)
  571. Title                                    : German-FORCED-PGS
  572. Language                                 : German
  573. Default                                  : No
  574. Forced                                   : No

  575. Text #13
  576. ID                                       : 31
  577. Format                                   : PGS
  578. Muxing mode                              : zlib
  579. Codec ID                                 : S_HDMV/PGS
  580. Codec ID/Info                            : Picture based subtitle format used on BDs/HD-DVDs
  581. Duration                                 : 1 h 13 min
  582. Bit rate                                 : 22.9 kb/s
  583. Count of elements                        : 1192
  584. Stream size                              : 12.1 MiB (0%)
  585. Title                                    : Italian-PGS
  586. Language                                 : Italian
  587. Default                                  : No
  588. Forced                                   : No

  589. Text #14
  590. ID                                       : 32
  591. Format                                   : PGS
  592. Muxing mode                              : zlib
  593. Codec ID                                 : S_HDMV/PGS
  594. Codec ID/Info                            : Picture based subtitle format used on BDs/HD-DVDs
  595. Duration                                 : 45 min 29 s
  596. Bit rate                                 : 1 849 b/s
  597. Count of elements                        : 58
  598. Stream size                              : 616 KiB (0%)
  599. Title                                    : Italian-FORCED-PGS
  600. Language                                 : Italian
  601. Default                                  : No
  602. Forced                                   : No

  603. Text #15
  604. ID                                       : 33
  605. Format                                   : PGS
  606. Muxing mode                              : zlib
  607. Codec ID                                 : S_HDMV/PGS
  608. Codec ID/Info                            : Picture based subtitle format used on BDs/HD-DVDs
  609. Duration                                 : 1 h 10 min
  610. Bit rate                                 : 19.8 kb/s
  611. Count of elements                        : 1006
  612. Stream size                              : 10.0 MiB (0%)
  613. Title                                    : Portuguese-PGS
  614. Language                                 : Portuguese
  615. Default                                  : No
  616. Forced                                   : No

  617. Text #16
  618. ID                                       : 34
  619. Format                                   : PGS
  620. Muxing mode                              : zlib
  621. Codec ID                                 : S_HDMV/PGS
  622. Codec ID/Info                            : Picture based subtitle format used on BDs/HD-DVDs
  623. Duration                                 : 1 min 18 s
  624. Bit rate                                 : 23.4 kb/s
  625. Count of elements                        : 18
  626. Stream size                              : 225 KiB (0%)
  627. Title                                    : Portuguese-FORCED-PGS
  628. Language                                 : Portuguese
  629. Default                                  : No
  630. Forced                                   : No

  631. Text #17
  632. ID                                       : 35
  633. Format                                   : PGS
  634. Muxing mode                              : zlib
  635. Codec ID                                 : S_HDMV/PGS
  636. Codec ID/Info                            : Picture based subtitle format used on BDs/HD-DVDs
  637. Duration                                 : 1 h 10 min
  638. Bit rate                                 : 18.4 kb/s
  639. Count of elements                        : 1010
  640. Stream size                              : 9.32 MiB (0%)
  641. Title                                    : Czech-PGS
  642. Language                                 : Czech
  643. Default                                  : No
  644. Forced                                   : No

  645. Text #18
  646. ID                                       : 36
  647. Format                                   : PGS
  648. Muxing mode                              : zlib
  649. Codec ID                                 : S_HDMV/PGS
  650. Codec ID/Info                            : Picture based subtitle format used on BDs/HD-DVDs
  651. Duration                                 : 50 min 55 s
  652. Bit rate                                 : 2 443 b/s
  653. Count of elements                        : 80
  654. Stream size                              : 911 KiB (0%)
  655. Title                                    : Czech-FORCED-PGS
  656. Language                                 : Czech
  657. Default                                  : No
  658. Forced                                   : No

  659. Text #19
  660. ID                                       : 37
  661. Format                                   : PGS
  662. Muxing mode                              : zlib
  663. Codec ID                                 : S_HDMV/PGS
  664. Codec ID/Info                            : Picture based subtitle format used on BDs/HD-DVDs
  665. Duration                                 : 1 h 10 min
  666. Bit rate                                 : 19.7 kb/s
  667. Count of elements                        : 980
  668. Stream size                              : 9.96 MiB (0%)
  669. Title                                    : Hungarian-PGS
  670. Language                                 : Hungarian
  671. Default                                  : No
  672. Forced                                   : No

  673. Text #20
  674. ID                                       : 38
  675. Format                                   : PGS
  676. Muxing mode                              : zlib
  677. Codec ID                                 : S_HDMV/PGS
  678. Codec ID/Info                            : Picture based subtitle format used on BDs/HD-DVDs
  679. Duration                                 : 50 min 55 s
  680. Bit rate                                 : 2 096 b/s
  681. Count of elements                        : 70
  682. Stream size                              : 782 KiB (0%)
  683. Title                                    : Hungarian-FORCED-PGS
  684. Language                                 : Hungarian
  685. Default                                  : No
  686. Forced                                   : No

  687. Text #21
  688. ID                                       : 39
  689. Format                                   : PGS
  690. Muxing mode                              : zlib
  691. Codec ID                                 : S_HDMV/PGS
  692. Codec ID/Info                            : Picture based subtitle format used on BDs/HD-DVDs
  693. Duration                                 : 1 h 10 min
  694. Bit rate                                 : 18.2 kb/s
  695. Count of elements                        : 990
  696. Stream size                              : 9.22 MiB (0%)
  697. Title                                    : Polish-PGS
  698. Language                                 : Polish
  699. Default                                  : No
  700. Forced                                   : No

  701. Text #22
  702. ID                                       : 40
  703. Format                                   : PGS
  704. Muxing mode                              : zlib
  705. Codec ID                                 : S_HDMV/PGS
  706. Codec ID/Info                            : Picture based subtitle format used on BDs/HD-DVDs
  707. Duration                                 : 1 h 10 min
  708. Bit rate                                 : 17.6 kb/s
  709. Count of elements                        : 962
  710. Stream size                              : 8.92 MiB (0%)
  711. Title                                    : Russian-PGS
  712. Language                                 : Russian
  713. Default                                  : No
  714. Forced                                   : No

  715. Text #23
  716. ID                                       : 41
  717. Format                                   : PGS
  718. Muxing mode                              : zlib
  719. Codec ID                                 : S_HDMV/PGS
  720. Codec ID/Info                            : Picture based subtitle format used on BDs/HD-DVDs
  721. Duration                                 : 50 min 55 s
  722. Bit rate                                 : 1 972 b/s
  723. Count of elements                        : 70
  724. Stream size                              : 736 KiB (0%)
  725. Title                                    : Russian-FORCED-PGS
  726. Language                                 : Russian
  727. Default                                  : No
  728. Forced                                   : No

  729. Text #24
  730. ID                                       : 42
  731. Format                                   : PGS
  732. Muxing mode                              : zlib
  733. Codec ID                                 : S_HDMV/PGS
  734. Codec ID/Info                            : Picture based subtitle format used on BDs/HD-DVDs
  735. Duration                                 : 1 h 10 min
  736. Bit rate                                 : 18.5 kb/s
  737. Count of elements                        : 962
  738. Stream size                              : 9.40 MiB (0%)
  739. Title                                    : Dutch-PGS
  740. Language                                 : Dutch
  741. Default                                  : No
  742. Forced                                   : No

  743. Text #25
  744. ID                                       : 43
  745. Format                                   : PGS
  746. Muxing mode                              : zlib
  747. Codec ID                                 : S_HDMV/PGS
  748. Codec ID/Info                            : Picture based subtitle format used on BDs/HD-DVDs
  749. Duration                                 : 1 h 10 min
  750. Bit rate                                 : 18.6 kb/s
  751. Count of elements                        : 932
  752. Stream size                              : 9.41 MiB (0%)
  753. Title                                    : Danish-PGS
  754. Language                                 : Danish
  755. Default                                  : No
  756. Forced                                   : No

  757. Text #26
  758. ID                                       : 44
  759. Format                                   : PGS
  760. Muxing mode                              : zlib
  761. Codec ID                                 : S_HDMV/PGS
  762. Codec ID/Info                            : Picture based subtitle format used on BDs/HD-DVDs
  763. Duration                                 : 1 h 10 min
  764. Bit rate                                 : 19.4 kb/s
  765. Count of elements                        : 908
  766. Stream size                              : 9.83 MiB (0%)
  767. Title                                    : Finnish-PGS
  768. Language                                 : Finnish
  769. Default                                  : No
  770. Forced                                   : No

  771. Text #27
  772. ID                                       : 45
  773. Format                                   : PGS
  774. Muxing mode                              : zlib
  775. Codec ID                                 : S_HDMV/PGS
  776. Codec ID/Info                            : Picture based subtitle format used on BDs/HD-DVDs
  777. Duration                                 : 1 h 10 min
  778. Bit rate                                 : 16.3 kb/s
  779. Count of elements                        : 726
  780. Stream size                              : 8.24 MiB (0%)
  781. Title                                    : Norwegian-PGS
  782. Language                                 : Norwegian
  783. Default                                  : No
  784. Forced                                   : No

  785. Text #28
  786. ID                                       : 46
  787. Format                                   : PGS
  788. Muxing mode                              : zlib
  789. Codec ID                                 : S_HDMV/PGS
  790. Codec ID/Info                            : Picture based subtitle format used on BDs/HD-DVDs
  791. Duration                                 : 1 h 10 min
  792. Bit rate                                 : 18.4 kb/s
  793. Count of elements                        : 744
  794. Stream size                              : 9.34 MiB (0%)
  795. Title                                    : Swedish-PGS
  796. Language                                 : Swedish
  797. Default                                  : No
  798. Forced                                   : No

  799. Text #29
  800. ID                                       : 47
  801. Format                                   : PGS
  802. Muxing mode                              : zlib
  803. Codec ID                                 : S_HDMV/PGS
  804. Codec ID/Info                            : Picture based subtitle format used on BDs/HD-DVDs
  805. Duration                                 : 1 h 10 min
  806. Bit rate                                 : 21.1 kb/s
  807. Count of elements                        : 986
  808. Stream size                              : 10.7 MiB (0%)
  809. Title                                    : Greek-PGS
  810. Language                                 : Greek
  811. Default                                  : No
  812. Forced                                   : No

  813. Text #30
  814. ID                                       : 48
  815. Format                                   : PGS
  816. Muxing mode                              : zlib
  817. Codec ID                                 : S_HDMV/PGS
  818. Codec ID/Info                            : Picture based subtitle format used on BDs/HD-DVDs
  819. Duration                                 : 1 h 10 min
  820. Bit rate                                 : 12.7 kb/s
  821. Count of elements                        : 984
  822. Stream size                              : 6.44 MiB (0%)
  823. Title                                    : Hebrew-PGS
  824. Language                                 : Hebrew
  825. Default                                  : No
  826. Forced                                   : No

  827. Text #31
  828. ID                                       : 49
  829. Format                                   : PGS
  830. Muxing mode                              : zlib
  831. Codec ID                                 : S_HDMV/PGS
  832. Codec ID/Info                            : Picture based subtitle format used on BDs/HD-DVDs
  833. Duration                                 : 1 h 10 min
  834. Bit rate                                 : 17.1 kb/s
  835. Count of elements                        : 1000
  836. Stream size                              : 8.65 MiB (0%)
  837. Title                                    : Portuguese-PGS
  838. Language                                 : Portuguese
  839. Default                                  : No
  840. Forced                                   : No

  841. Text #32
  842. ID                                       : 50
  843. Format                                   : PGS
  844. Muxing mode                              : zlib
  845. Codec ID                                 : S_HDMV/PGS
  846. Codec ID/Info                            : Picture based subtitle format used on BDs/HD-DVDs
  847. Duration                                 : 1 h 10 min
  848. Bit rate                                 : 18.7 kb/s
  849. Count of elements                        : 986
  850. Stream size                              : 9.49 MiB (0%)
  851. Title                                    : Romanian-PGS
  852. Language                                 : Romanian
  853. Default                                  : No
  854. Forced                                   : No

  855. Text #33
  856. ID                                       : 51
  857. Format                                   : PGS
  858. Muxing mode                              : zlib
  859. Codec ID                                 : S_HDMV/PGS
  860. Codec ID/Info                            : Picture based subtitle format used on BDs/HD-DVDs
  861. Duration                                 : 1 h 10 min
  862. Bit rate                                 : 19.1 kb/s
  863. Count of elements                        : 988
  864. Stream size                              : 9.66 MiB (0%)
  865. Title                                    : Turkish-PGS
  866. Language                                 : Turkish
  867. Default                                  : No
  868. Forced                                   : No

  869. Text #34
  870. ID                                       : 52
  871. Format                                   : PGS
  872. Muxing mode                              : zlib
  873. Codec ID                                 : S_HDMV/PGS
  874. Codec ID/Info                            : Picture based subtitle format used on BDs/HD-DVDs
  875. Duration                                 : 1 h 13 min
  876. Bit rate                                 : 14.3 kb/s
  877. Count of elements                        : 1010
  878. Stream size                              : 7.50 MiB (0%)
  879. Title                                    : Chinese-PGS
  880. Language                                 : Chinese
  881. Default                                  : No
  882. Forced                                   : No

  883. Text #35
  884. ID                                       : 53
  885. Format                                   : PGS
  886. Muxing mode                              : zlib
  887. Codec ID                                 : S_HDMV/PGS
  888. Codec ID/Info                            : Picture based subtitle format used on BDs/HD-DVDs
  889. Duration                                 : 1 h 10 min
  890. Bit rate                                 : 14.5 kb/s
  891. Count of elements                        : 1008
  892. Stream size                              : 7.33 MiB (0%)
  893. Title                                    : Korean-PGS
  894. Language                                 : Korean
  895. Default                                  : No
  896. Forced                                   : No

  897. Text #36
  898. ID                                       : 54
  899. Format                                   : PGS
  900. Muxing mode                              : zlib
  901. Codec ID                                 : S_HDMV/PGS
  902. Codec ID/Info                            : Picture based subtitle format used on BDs/HD-DVDs
  903. Duration                                 : 1 h 13 min
  904. Bit rate                                 : 16.7 kb/s
  905. Count of elements                        : 1006
  906. Stream size                              : 8.73 MiB (0%)
  907. Title                                    : Thai-PGS
  908. Language                                 : Thai
  909. Default                                  : No
  910. Forced                                   : No

  911. Menu
  912. 00:00:00.000                             : en:Chapter 01
  913. 00:02:01.121                             : en:Chapter 02
  914. 00:20:18.300                             : en:Chapter 03
  915. 00:30:46.678                             : en:Chapter 04
  916. 00:42:40.474                             : en:Chapter 05
  917. 00:55:21.443                             : en:Chapter 06
  918. 01:04:56.350                             : en:Chapter 07
  919. 01:17:17.132                             : en:Chapter 08
復制代碼









本帖隱藏的下載地址需要VIP會員才可瀏覽,您需要升級才可瀏覽,點擊這里升級VIP
分享到:  QQ好友和群QQ好友和群
收藏收藏
VIP會員免費任意下載本站所有資源!---點擊開通
回復

使用道具 舉報

級別:普通觀眾 Lv.2

注冊時間
2019-1-21
最后登錄
2019-12-10
聽眾
8
收聽
0
主題
0
藍光幣
17 枚
貢獻
0 點
沙發
發表于 2019-11-30 16:39:29 | 只看該作者

樓主太厲害了!樓主,電影應該很好看我覺得中國高清電影網真是個好地方!
VIP會員免費任意下載本站所有資源!---點擊開通
回復

使用道具 舉報

懶得打字嘛,點擊右側快捷回復 【右側內容,后臺自定義】
您需要登錄后才可以回帖 登錄 | 立即注冊

本版積分規則

QQ|Archiver|手機版|小黑屋| 中國高清網 |網站地圖

GMT+8, 2019-12-11 01:55 , Processed in 0.213598 second(s), 36 queries .

Powered by HDchina X3.4

Copyright 2017-2019©HDchina.All right reserved

返回頂部 聯系我們
三分彩如何看规律