查看: 61|回復: 0
打印 上一主題 下一主題

[REMUX.HEVC] 老男孩 Oldboy.2003.KOREAN.2160p.BluRay.REMUX.HEVC.DTS-HD.MA.5.1-FGT 47.32GB

[復制鏈接]

 成長值: 3420

級別:資源管理組

注冊時間
2017-10-20
最后登錄
2019-12-11
聽眾
1
收聽
0
主題
88399
藍光幣
69951 枚
貢獻
12761 點
跳轉到指定樓層
樓主
發表于 2019-11-23 14:34:04 | 只看該作者 |只看大圖 回帖獎勵 |倒序瀏覽 |閱讀模式


譯  名 老男孩 / Old Boy / Oldboy / Oldeuboi / 原罪犯
片  名 ????
年  代 2003
產  地 韓國
類  別 劇情 / 動作 / 愛情 / 懸疑
語  言 韓語
上映日期 2003-11-21(韓國)
IMDb評分  8.4/10 from 472775 users
IMDb鏈接  https://www.imdb.com/title/tt0364569
豆瓣評分 8.2/10 from 194340 users
豆瓣鏈接 https://movie.douban.com/subject/1308865/
片  長 120分鐘
導  演 樸贊郁 Chan-wook Park
編  劇 樸贊郁 Chan-wook Park / 黃祖潤 Jo-yun Hwang
主  演 崔岷植 Min-sik Choi
       姜惠貞 Hye-jeong Kang
       劉智泰 Ji-tae Yu
       池大韓 Dae-han Ji
       吳達洙 Dal-su Oh
       金秉玉 Byeong-ok Kim
       尹珍序 Jin-seo Yun
       吳光祿 Kwang-rok Oh


標  簽 韓國 | 復仇 | 人性 | 懸疑 | 樸贊郁 | 暴力 | 韓國電影 | 崔岷植

簡  介  

  女兒生日那天,中年男子吳大修(崔岷植飾)在醉酒回家路上,突遭不明身份的人綁架失蹤。就此,他毫無理由地被囚禁在一個神秘的私人監獄中。尋死未果的吳大修,每天看電視,三餐吃煎餃。通過電視,他得知妻子已遭殺害,女兒下落不明,自己更被懷疑為兇手。就此,吳大修開始鍛煉身體,決心復仇,并在牢中度過漫長的15年。
  當吳秘密挖通墻壁時,卻在某一天被放出,得以重見天日。他不顧一切地尋找自己被綁架囚禁的原因,并展開瘋狂的復仇計劃。他遇見了年輕的壽司女店員(姜惠貞飾),并借助同窗老友追尋仇人,成功懲罰了監獄看守(吳達庶飾)一番。與此同時,幕后仇人李有真(劉智泰飾)也浮出水面……

獲獎情況  

  第57屆戛納電影節(2004)
  主競賽單元 金棕櫚獎(提名) 樸贊郁
  主競賽單元 評審團大獎 樸贊郁

  第24屆香港電影金像獎(2005)
  最佳亞洲電影
  1. Video #1
  2. ID                                       : 1
  3. Format                                   : HEVC
  4. Format/Info                              : High Efficiency Video Coding
  5. Format profile                           : Main [email protected]@High
  6. HDR format                               : SMPTE ST 2086, HDR10 compatible
  7. Codec ID                                 : V_MPEGH/ISO/HEVC
  8. Duration                                 : 1 h 59 min
  9. Bit rate                                 : 47.9 Mb/s
  10. Width                                    : 3 840 pixels
  11. Height                                   : 2 160 pixels
  12. Display aspect ratio                     : 16:9
  13. Frame rate mode                          : Constant
  14. Frame rate                               : 24.000 FPS
  15. Color space                              : YUV
  16. Chroma subsampling                       : 4:2:0 (Type 2)
  17. Bit depth                                : 10 bits
  18. Bits/(Pixel*Frame)                       : 0.240
  19. Stream size                              : 40.0 GiB (85%)
  20. Title                                    : Oldboy.2003.KOREAN.2160p.BluRay.REMUX.HEVC.DTS-HD.MA.5.1-FGT
  21. Language                                 : English
  22. Default                                  : Yes
  23. Forced                                   : No
  24. Color range                              : Limited
  25. Color primaries                          : BT.2020
  26. Transfer characteristics                 : PQ
  27. Matrix coefficients                      : BT.2020 non-constant
  28. Mastering display color primaries        : Display P3
  29. Mastering display luminance              : min: 0.0001 cd/m2, max: 1000 cd/m2

  30. Video #2
  31. ID                                       : 2
  32. Format                                   : HEVC
  33. Format/Info                              : High Efficiency Video Coding
  34. Format profile                           : Main [email protected]@High
  35. HDR format                               : SMPTE ST 2086, HDR10 compatible
  36. Codec ID                                 : V_MPEGH/ISO/HEVC
  37. Duration                                 : 1 h 59 min
  38. Bit rate                                 : 1 008 kb/s
  39. Width                                    : 1 920 pixels
  40. Height                                   : 1 080 pixels
  41. Display aspect ratio                     : 16:9
  42. Frame rate mode                          : Constant
  43. Frame rate                               : 24.000 FPS
  44. Color space                              : YUV
  45. Chroma subsampling                       : 4:2:0 (Type 2)
  46. Bit depth                                : 10 bits
  47. Bits/(Pixel*Frame)                       : 0.020
  48. Stream size                              : 864 MiB (2%)
  49. Title                                    : Oldboy.2003.KOREAN.2160p.BluRay.REMUX.HEVC.DTS-HD.MA.5.1-FGT
  50. Default                                  : No
  51. Forced                                   : No
  52. Color range                              : Limited
  53. Color primaries                          : BT.2020
  54. Transfer characteristics                 : PQ
  55. Matrix coefficients                      : BT.2020 non-constant
  56. Mastering display color primaries        : Display P3
  57. Mastering display luminance              : min: 0.0001 cd/m2, max: 1000 cd/m2

  58. Audio #1
  59. ID                                       : 3
  60. Format                                   : DTS XLL
  61. Format/Info                              : Digital Theater Systems
  62. Commercial name                          : DTS-HD Master Audio
  63. Codec ID                                 : A_DTS
  64. Duration                                 : 1 h 59 min
  65. Bit rate mode                            : Variable
  66. Bit rate                                 : 3 460 kb/s
  67. Channel(s)                               : 6 channels
  68. Channel layout                           : C L R Ls Rs LFE
  69. Sampling rate                            : 48.0 kHz
  70. Frame rate                               : 93.750 FPS (512 SPF)
  71. Bit depth                                : 24 bits
  72. Compression mode                         : Lossless
  73. Stream size                              : 2.90 GiB (6%)
  74. Title                                    : Oldboy.2003.KOREAN.2160p.BluRay.REMUX.HEVC.DTS-HD.MA.5.1-FGT
  75. Language                                 : Korean
  76. Default                                  : Yes
  77. Forced                                   : No

  78. Audio #2
  79. ID                                       : 4
  80. Format                                   : DTS XLL
  81. Format/Info                              : Digital Theater Systems
  82. Commercial name                          : DTS-HD Master Audio
  83. Codec ID                                 : A_DTS
  84. Duration                                 : 1 h 59 min
  85. Bit rate mode                            : Variable
  86. Bit rate                                 : 3 567 kb/s
  87. Channel(s)                               : 6 channels
  88. Channel layout                           : C L R Ls Rs LFE
  89. Sampling rate                            : 48.0 kHz
  90. Frame rate                               : 93.750 FPS (512 SPF)
  91. Bit depth                                : 24 bits
  92. Compression mode                         : Lossless
  93. Stream size                              : 2.98 GiB (6%)
  94. Title                                    : Oldboy.2003.KOREAN.2160p.BluRay.REMUX.HEVC.DTS-HD.MA.5.1-FGT
  95. Language                                 : German
  96. Default                                  : No
  97. Forced                                   : No

  98. Audio #3
  99. ID                                       : 5
  100. Format                                   : AC-3
  101. Format/Info                              : Audio Coding 3
  102. Commercial name                          : Dolby Digital
  103. Codec ID                                 : A_AC3
  104. Duration                                 : 1 h 59 min
  105. Bit rate mode                            : Constant
  106. Bit rate                                 : 192 kb/s
  107. Channel(s)                               : 2 channels
  108. Channel layout                           : L R
  109. Sampling rate                            : 48.0 kHz
  110. Frame rate                               : 31.250 FPS (1536 SPF)
  111. Bit depth                                : 16 bits
  112. Compression mode                         : Lossy
  113. Stream size                              : 165 MiB (0%)
  114. Title                                    : Oldboy.2003.KOREAN.2160p.BluRay.REMUX.HEVC.DTS-HD.MA.5.1-FGT
  115. Language                                 : Korean
  116. Service kind                             : Complete Main
  117. Default                                  : No
  118. Forced                                   : No

  119. Audio #4
  120. ID                                       : 6
  121. Format                                   : AC-3
  122. Format/Info                              : Audio Coding 3
  123. Commercial name                          : Dolby Digital
  124. Codec ID                                 : A_AC3
  125. Duration                                 : 1 h 59 min
  126. Bit rate mode                            : Constant
  127. Bit rate                                 : 192 kb/s
  128. Channel(s)                               : 2 channels
  129. Channel layout                           : L R
  130. Sampling rate                            : 48.0 kHz
  131. Frame rate                               : 31.250 FPS (1536 SPF)
  132. Bit depth                                : 16 bits
  133. Compression mode                         : Lossy
  134. Stream size                              : 165 MiB (0%)
  135. Title                                    : Oldboy.2003.KOREAN.2160p.BluRay.REMUX.HEVC.DTS-HD.MA.5.1-FGT
  136. Language                                 : Korean
  137. Service kind                             : Complete Main
  138. Default                                  : No
  139. Forced                                   : No

  140. Audio #5
  141. ID                                       : 7
  142. Format                                   : AC-3
  143. Format/Info                              : Audio Coding 3
  144. Commercial name                          : Dolby Digital
  145. Codec ID                                 : A_AC3
  146. Duration                                 : 1 h 59 min
  147. Bit rate mode                            : Constant
  148. Bit rate                                 : 192 kb/s
  149. Channel(s)                               : 2 channels
  150. Channel layout                           : L R
  151. Sampling rate                            : 48.0 kHz
  152. Frame rate                               : 31.250 FPS (1536 SPF)
  153. Bit depth                                : 16 bits
  154. Compression mode                         : Lossy
  155. Stream size                              : 165 MiB (0%)
  156. Title                                    : Oldboy.2003.KOREAN.2160p.BluRay.REMUX.HEVC.DTS-HD.MA.5.1-FGT
  157. Language                                 : Korean
  158. Service kind                             : Complete Main
  159. Default                                  : No
  160. Forced                                   : No

  161. Text #1
  162. ID                                       : 8
  163. Format                                   : UTF-8
  164. Codec ID                                 : S_TEXT/UTF8
  165. Codec ID/Info                            : UTF-8 Plain Text
  166. Duration                                 : 1 h 56 min
  167. Bit rate                                 : 35 b/s
  168. Count of elements                        : 918
  169. Stream size                              : 29.8 KiB (0%)
  170. Title                                    : English-SRT
  171. Language                                 : English
  172. Default                                  : Yes
  173. Forced                                   : No

  174. Text #2
  175. ID                                       : 9
  176. Format                                   : PGS
  177. Muxing mode                              : zlib
  178. Codec ID                                 : S_HDMV/PGS
  179. Codec ID/Info                            : Picture based subtitle format used on BDs/HD-DVDs
  180. Duration                                 : 1 h 56 min
  181. Bit rate                                 : 20.6 kb/s
  182. Count of elements                        : 1838
  183. Stream size                              : 17.1 MiB (0%)
  184. Title                                    : English-PGS
  185. Language                                 : English
  186. Default                                  : No
  187. Forced                                   : No

  188. Text #3
  189. ID                                       : 10
  190. Format                                   : PGS
  191. Muxing mode                              : zlib
  192. Codec ID                                 : S_HDMV/PGS
  193. Codec ID/Info                            : Picture based subtitle format used on BDs/HD-DVDs
  194. Duration                                 : 1 h 15 min
  195. Bit rate                                 : 535 b/s
  196. Count of elements                        : 32
  197. Stream size                              : 296 KiB (0%)
  198. Title                                    : German-FORCED-PGS
  199. Language                                 : German
  200. Default                                  : No
  201. Forced                                   : No

  202. Text #4
  203. ID                                       : 11
  204. Format                                   : PGS
  205. Muxing mode                              : zlib
  206. Codec ID                                 : S_HDMV/PGS
  207. Codec ID/Info                            : Picture based subtitle format used on BDs/HD-DVDs
  208. Duration                                 : 1 h 56 min
  209. Bit rate                                 : 23.9 kb/s
  210. Count of elements                        : 1894
  211. Stream size                              : 19.9 MiB (0%)
  212. Title                                    : German-PGS
  213. Language                                 : German
  214. Default                                  : No
  215. Forced                                   : No

  216. Text #5
  217. ID                                       : 12
  218. Format                                   : PGS
  219. Muxing mode                              : zlib
  220. Codec ID                                 : S_HDMV/PGS
  221. Codec ID/Info                            : Picture based subtitle format used on BDs/HD-DVDs
  222. Duration                                 : 1 h 59 min
  223. Bit rate                                 : 30.3 kb/s
  224. Count of elements                        : 1778
  225. Stream size                              : 25.9 MiB (0%)
  226. Title                                    : German-PGS
  227. Language                                 : German
  228. Default                                  : No
  229. Forced                                   : No

  230. Text #6
  231. ID                                       : 13
  232. Format                                   : PGS
  233. Muxing mode                              : zlib
  234. Codec ID                                 : S_HDMV/PGS
  235. Codec ID/Info                            : Picture based subtitle format used on BDs/HD-DVDs
  236. Duration                                 : 1 h 59 min
  237. Bit rate                                 : 31.4 kb/s
  238. Count of elements                        : 2124
  239. Stream size                              : 26.9 MiB (0%)
  240. Title                                    : German-PGS
  241. Language                                 : German
  242. Default                                  : No
  243. Forced                                   : No

  244. Text #7
  245. ID                                       : 14
  246. Format                                   : PGS
  247. Muxing mode                              : zlib
  248. Codec ID                                 : S_HDMV/PGS
  249. Codec ID/Info                            : Picture based subtitle format used on BDs/HD-DVDs
  250. Duration                                 : 1 h 59 min
  251. Bit rate                                 : 38.6 kb/s
  252. Count of elements                        : 2144
  253. Stream size                              : 33.1 MiB (0%)
  254. Title                                    : German-PGS
  255. Language                                 : German
  256. Default                                  : No
  257. Forced                                   : No

  258. Menu
  259. 00:00:00.000                             : en:Chapter 01
  260. 00:05:58.583                             : en:Chapter 02
  261. 00:12:15.958                             : en:Chapter 03
  262. 00:16:35.958                             : en:Chapter 04
  263. 00:21:39.291                             : en:Chapter 05
  264. 00:28:39.291                             : en:Chapter 06
  265. 00:33:55.291                             : en:Chapter 07
  266. 00:42:34.708                             : en:Chapter 08
  267. 00:49:20.708                             : en:Chapter 09
  268. 01:00:55.916                             : en:Chapter 10
  269. 01:06:49.916                             : en:Chapter 11
  270. 01:12:32.625                             : en:Chapter 12
  271. 01:19:22.625                             : en:Chapter 13
  272. 01:24:18.625                             : en:Chapter 14
  273. 01:29:05.375                             : en:Chapter 15
  274. 01:35:22.375                             : en:Chapter 16
  275. 01:39:52.791                             : en:Chapter 17
  276. 01:47:38.791                             : en:Chapter 18
  277. 01:51:19.750                             : en:Chapter 19
  278. 01:57:25.750                             : en:Chapter 20
復制代碼









本帖隱藏的下載地址需要VIP會員才可瀏覽,您需要升級才可瀏覽,點擊這里升級VIP
分享到:  QQ好友和群QQ好友和群
收藏收藏
VIP會員免費任意下載本站所有資源!---點擊開通
回復

使用道具 舉報

懶得打字嘛,點擊右側快捷回復 【右側內容,后臺自定義】
您需要登錄后才可以回帖 登錄 | 立即注冊

本版積分規則

QQ|Archiver|手機版|小黑屋| 中國高清網 |網站地圖

GMT+8, 2019-12-11 01:36 , Processed in 0.193545 second(s), 36 queries .

Powered by HDchina X3.4

Copyright 2017-2019©HDchina.All right reserved

返回頂部 聯系我們
三分彩如何看规律