查看: 108|回復: 4
打印 上一主題 下一主題

[8bit.SDR] 老男孩 Oldboy.2003.KOREAN.2160p.BluRay.x264.8bit.SDR.DTS-HD.MA.5.1-SWTYBLZ 36.49GB

[復制鏈接]

 成長值: 3420

級別:資源管理組

注冊時間
2017-10-20
最后登錄
2019-12-11
聽眾
1
收聽
0
主題
88399
藍光幣
69949 枚
貢獻
12761 點
跳轉到指定樓層
樓主
發表于 2019-11-23 14:40:12 | 只看該作者 |只看大圖 回帖獎勵 |倒序瀏覽 |閱讀模式


譯  名 老男孩 / Old Boy / Oldboy / Oldeuboi / 原罪犯
片  名 ????
年  代 2003
產  地 韓國
類  別 劇情 / 動作 / 愛情 / 懸疑
語  言 韓語
上映日期 2003-11-21(韓國)
IMDb評分  8.4/10 from 472775 users
IMDb鏈接  https://www.imdb.com/title/tt0364569
豆瓣評分 8.2/10 from 194340 users
豆瓣鏈接 https://movie.douban.com/subject/1308865/
片  長 120分鐘
導  演 樸贊郁 Chan-wook Park
編  劇 樸贊郁 Chan-wook Park / 黃祖潤 Jo-yun Hwang
主  演 崔岷植 Min-sik Choi
       姜惠貞 Hye-jeong Kang
       劉智泰 Ji-tae Yu
       池大韓 Dae-han Ji
       吳達洙 Dal-su Oh
       金秉玉 Byeong-ok Kim
       尹珍序 Jin-seo Yun
       吳光祿 Kwang-rok Oh


標  簽 韓國 | 復仇 | 人性 | 懸疑 | 樸贊郁 | 暴力 | 韓國電影 | 崔岷植

簡  介  

  女兒生日那天,中年男子吳大修(崔岷植飾)在醉酒回家路上,突遭不明身份的人綁架失蹤。就此,他毫無理由地被囚禁在一個神秘的私人監獄中。尋死未果的吳大修,每天看電視,三餐吃煎餃。通過電視,他得知妻子已遭殺害,女兒下落不明,自己更被懷疑為兇手。就此,吳大修開始鍛煉身體,決心復仇,并在牢中度過漫長的15年。
  當吳秘密挖通墻壁時,卻在某一天被放出,得以重見天日。他不顧一切地尋找自己被綁架囚禁的原因,并展開瘋狂的復仇計劃。他遇見了年輕的壽司女店員(姜惠貞飾),并借助同窗老友追尋仇人,成功懲罰了監獄看守(吳達庶飾)一番。與此同時,幕后仇人李有真(劉智泰飾)也浮出水面……

獲獎情況  

  第57屆戛納電影節(2004)
  主競賽單元 金棕櫚獎(提名) 樸贊郁
  主競賽單元 評審團大獎 樸贊郁

  第24屆香港電影金像獎(2005)
  最佳亞洲電影
  1. Video
  2. ID                                       : 1
  3. Format                                   : AVC
  4. Format/Info                              : Advanced Video Codec
  5. Format profile                           : [email protected]
  6. Format settings                          : CABAC / 5 Ref Frames
  7. Format settings, CABAC                   : Yes
  8. Format settings, Reference frames        : 5 frames
  9. Codec ID                                 : V_MPEG4/ISO/AVC
  10. Duration                                 : 1 h 59 min
  11. Bit rate                                 : 39.2 Mb/s
  12. Width                                    : 3 840 pixels
  13. Height                                   : 1 636 pixels
  14. Display aspect ratio                     : 2.35:1
  15. Frame rate mode                          : Constant
  16. Frame rate                               : 24.000 FPS
  17. Color space                              : YUV
  18. Chroma subsampling                       : 4:2:0
  19. Bit depth                                : 8 bits
  20. Scan type                                : Progressive
  21. Bits/(Pixel*Frame)                       : 0.260
  22. Stream size                              : 32.8 GiB (90%)
  23. Title                                    : Oldboy.2003.KOREAN.2160p.BluRay.x264.8bit.SDR.DTS-HD.MA.5.1-SWTYBLZ
  24. Writing library                          : x264 core 157 r2935 545de2f
  25. Encoding settings                        : cabac=1 / ref=5 / deblock=1:-1:-1 / analyse=0x3:0x113 / me=umh / subme=10 / psy=1 / psy_rd=1.00:0.15 / mixed_ref=1 / me_range=48 / chroma_me=1 / trellis=2 / 8x8dct=1 / cqm=0 / deadzone=21,11 / fast_pskip=1 / chroma_qp_offset=-3 / threads=48 / lookahead_threads=4 / sliced_threads=0 / nr=0 / decimate=0 / interlaced=0 / bluray_compat=0 / constrained_intra=0 / bframes=3 / b_pyramid=2 / b_adapt=2 / b_bias=0 / direct=3 / weightb=1 / open_gop=0 / weightp=2 / keyint=250 / keyint_min=24 / scenecut=40 / intra_refresh=0 / rc_lookahead=50 / rc=crf / mbtree=1 / crf=22.0 / qcomp=0.60 / qpmin=0 / qpmax=69 / qpstep=4 / ip_ratio=1.40 / aq=1:1.00
  26. Default                                  : Yes
  27. Forced                                   : No

  28. Audio #1
  29. ID                                       : 2
  30. Format                                   : DTS XLL
  31. Format/Info                              : Digital Theater Systems
  32. Commercial name                          : DTS-HD Master Audio
  33. Codec ID                                 : A_DTS
  34. Duration                                 : 1 h 59 min
  35. Bit rate mode                            : Variable
  36. Bit rate                                 : 3 460 kb/s
  37. Channel(s)                               : 6 channels
  38. Channel layout                           : C L R Ls Rs LFE
  39. Sampling rate                            : 48.0 kHz
  40. Frame rate                               : 93.750 FPS (512 SPF)
  41. Bit depth                                : 24 bits
  42. Compression mode                         : Lossless
  43. Stream size                              : 2.90 GiB (8%)
  44. Title                                    : Oldboy.2003.KOREAN.2160p.BluRay.x264.8bit.SDR.DTS-HD.MA.5.1-SWTYBLZ
  45. Language                                 : Korean
  46. Default                                  : Yes
  47. Forced                                   : No

  48. Audio #2
  49. ID                                       : 3
  50. Format                                   : AC-3
  51. Format/Info                              : Audio Coding 3
  52. Commercial name                          : Dolby Digital
  53. Codec ID                                 : A_AC3
  54. Duration                                 : 1 h 59 min
  55. Bit rate mode                            : Constant
  56. Bit rate                                 : 640 kb/s
  57. Channel(s)                               : 6 channels
  58. Channel layout                           : L R C LFE Ls Rs
  59. Sampling rate                            : 48.0 kHz
  60. Frame rate                               : 31.250 FPS (1536 SPF)
  61. Bit depth                                : 16 bits
  62. Compression mode                         : Lossy
  63. Stream size                              : 548 MiB (1%)
  64. Title                                    : Oldboy.2003.KOREAN.2160p.BluRay.x264.8bit.SDR.DTS-HD.MA.5.1-SWTYBLZ
  65. Language                                 : Korean
  66. Service kind                             : Complete Main
  67. Default                                  : No
  68. Forced                                   : No

  69. Text #1
  70. ID                                       : 4
  71. Format                                   : UTF-8
  72. Codec ID                                 : S_TEXT/UTF8
  73. Codec ID/Info                            : UTF-8 Plain Text
  74. Duration                                 : 1 h 56 min
  75. Bit rate                                 : 35 b/s
  76. Count of elements                        : 918
  77. Stream size                              : 29.8 KiB (0%)
  78. Title                                    : English-SRT
  79. Language                                 : English
  80. Default                                  : Yes
  81. Forced                                   : No

  82. Text #2
  83. ID                                       : 5
  84. Format                                   : PGS
  85. Muxing mode                              : zlib
  86. Codec ID                                 : S_HDMV/PGS
  87. Codec ID/Info                            : Picture based subtitle format used on BDs/HD-DVDs
  88. Duration                                 : 1 h 56 min
  89. Bit rate                                 : 20.6 kb/s
  90. Count of elements                        : 1838
  91. Stream size                              : 17.1 MiB (0%)
  92. Title                                    : English-PGS
  93. Language                                 : English
  94. Default                                  : No
  95. Forced                                   : No

  96. Text #3
  97. ID                                       : 6
  98. Format                                   : PGS
  99. Muxing mode                              : zlib
  100. Codec ID                                 : S_HDMV/PGS
  101. Codec ID/Info                            : Picture based subtitle format used on BDs/HD-DVDs
  102. Duration                                 : 1 h 56 min
  103. Bit rate                                 : 23.9 kb/s
  104. Count of elements                        : 1894
  105. Stream size                              : 19.9 MiB (0%)
  106. Title                                    : German-PGS
  107. Language                                 : German
  108. Default                                  : No
  109. Forced                                   : No

  110. Text #4
  111. ID                                       : 7
  112. Format                                   : PGS
  113. Muxing mode                              : zlib
  114. Codec ID                                 : S_HDMV/PGS
  115. Codec ID/Info                            : Picture based subtitle format used on BDs/HD-DVDs
  116. Duration                                 : 1 h 59 min
  117. Bit rate                                 : 30.3 kb/s
  118. Count of elements                        : 1778
  119. Stream size                              : 25.9 MiB (0%)
  120. Title                                    : German-PGS
  121. Language                                 : German
  122. Default                                  : No
  123. Forced                                   : No

  124. Menu
  125. 00:00:00.000                             : en:Chapter 01
  126. 00:05:58.583                             : en:Chapter 02
  127. 00:12:15.958                             : en:Chapter 03
  128. 00:16:35.958                             : en:Chapter 04
  129. 00:21:39.291                             : en:Chapter 05
  130. 00:28:39.291                             : en:Chapter 06
  131. 00:33:55.291                             : en:Chapter 07
  132. 00:42:34.708                             : en:Chapter 08
  133. 00:49:20.708                             : en:Chapter 09
  134. 01:00:55.916                             : en:Chapter 10
  135. 01:06:49.916                             : en:Chapter 11
  136. 01:12:32.625                             : en:Chapter 12
  137. 01:19:22.625                             : en:Chapter 13
  138. 01:24:18.625                             : en:Chapter 14
  139. 01:29:05.375                             : en:Chapter 15
  140. 01:35:22.375                             : en:Chapter 16
  141. 01:39:52.791                             : en:Chapter 17
  142. 01:47:38.791                             : en:Chapter 18
  143. 01:51:19.750                             : en:Chapter 19
  144. 01:57:25.750                             : en:Chapter 20
復制代碼









本帖隱藏的下載地址需要VIP會員才可瀏覽,您需要升級才可瀏覽,點擊這里升級VIP
分享到:  QQ好友和群QQ好友和群
收藏收藏
VIP會員免費任意下載本站所有資源!---點擊開通
回復

使用道具 舉報

級別:初級觀眾 Lv.1

注冊時間
2019-9-10
最后登錄
2019-11-24
聽眾
0
收聽
0
主題
0
藍光幣
20 枚
貢獻
0 點
沙發
發表于 2019-11-24 08:43:27 | 只看該作者

樓主太厲害了!樓主,電影應該很好看我覺得中國高清電影網真是個好地方!
VIP會員免費任意下載本站所有資源!---點擊開通
回復

使用道具 舉報

級別:初級觀眾 Lv.1

注冊時間
2019-11-25
最后登錄
2019-11-25
聽眾
0
收聽
0
主題
0
藍光幣
0 枚
貢獻
0 點
板凳
發表于 2019-11-25 21:55:56 | 只看該作者
樓主發貼辛苦了,謝謝樓主分享!我覺得中國高清電影網是注冊對了!
VIP會員免費任意下載本站所有資源!---點擊開通
回復

使用道具 舉報

級別:普通觀眾 Lv.2

注冊時間
2019-11-27
最后登錄
2019-12-10
聽眾
1
收聽
0
主題
0
藍光幣
9 枚
貢獻
0 點
地板
發表于 2019-11-27 18:03:47 | 只看該作者
樓主發貼辛苦了,謝謝樓主分享!我覺得中國高清電影網是注冊對了!
VIP會員免費任意下載本站所有資源!---點擊開通
回復

使用道具 舉報

級別:初級觀眾 Lv.1

注冊時間
2019-11-27
最后登錄
2019-11-27
聽眾
0
收聽
0
主題
0
藍光幣
1 枚
貢獻
0 點
5#
發表于 2019-11-27 21:32:49 | 只看該作者
真的是比較老的電影了
VIP會員免費任意下載本站所有資源!---點擊開通
回復

使用道具 舉報

懶得打字嘛,點擊右側快捷回復 【右側內容,后臺自定義】
您需要登錄后才可以回帖 登錄 | 立即注冊

本版積分規則

QQ|Archiver|手機版|小黑屋| 中國高清網 |網站地圖

GMT+8, 2019-12-11 01:21 , Processed in 0.186242 second(s), 36 queries .

Powered by HDchina X3.4

Copyright 2017-2019©HDchina.All right reserved

返回頂部 聯系我們
三分彩如何看规律