查看: 99|回復: 0
打印 上一主題 下一主題

[10bit.SDR] 老男孩 Oldboy.2003.KOREAN.2160p.BluRay.x265.10bit.SDR.DTS-HD.MA.5.1-SWTYBLZ 33.21GB

[復制鏈接]

 成長值: 3420

級別:資源管理組

注冊時間
2017-10-20
最后登錄
2019-12-11
聽眾
1
收聽
0
主題
88399
藍光幣
69953 枚
貢獻
12761 點
跳轉到指定樓層
樓主
發表于 2019-11-23 20:52:38 | 只看該作者 |只看大圖 回帖獎勵 |倒序瀏覽 |閱讀模式


譯  名 老男孩 / Old Boy / Oldboy / Oldeuboi / 原罪犯
片  名 ????
年  代 2003
產  地 韓國
類  別 劇情 / 動作 / 愛情 / 懸疑
語  言 韓語
上映日期 2003-11-21(韓國)
IMDb評分  8.4/10 from 472775 users
IMDb鏈接  https://www.imdb.com/title/tt0364569
豆瓣評分 8.2/10 from 194340 users
豆瓣鏈接 https://movie.douban.com/subject/1308865/
片  長 120分鐘
導  演 樸贊郁 Chan-wook Park
編  劇 樸贊郁 Chan-wook Park / 黃祖潤 Jo-yun Hwang
主  演 崔岷植 Min-sik Choi
       姜惠貞 Hye-jeong Kang
       劉智泰 Ji-tae Yu
       池大韓 Dae-han Ji
       吳達洙 Dal-su Oh
       金秉玉 Byeong-ok Kim
       尹珍序 Jin-seo Yun
       吳光祿 Kwang-rok Oh


標  簽 韓國 | 復仇 | 人性 | 懸疑 | 樸贊郁 | 暴力 | 韓國電影 | 崔岷植

簡  介  

  女兒生日那天,中年男子吳大修(崔岷植飾)在醉酒回家路上,突遭不明身份的人綁架失蹤。就此,他毫無理由地被囚禁在一個神秘的私人監獄中。尋死未果的吳大修,每天看電視,三餐吃煎餃。通過電視,他得知妻子已遭殺害,女兒下落不明,自己更被懷疑為兇手。就此,吳大修開始鍛煉身體,決心復仇,并在牢中度過漫長的15年。
  當吳秘密挖通墻壁時,卻在某一天被放出,得以重見天日。他不顧一切地尋找自己被綁架囚禁的原因,并展開瘋狂的復仇計劃。他遇見了年輕的壽司女店員(姜惠貞飾),并借助同窗老友追尋仇人,成功懲罰了監獄看守(吳達庶飾)一番。與此同時,幕后仇人李有真(劉智泰飾)也浮出水面……

獲獎情況  

  第57屆戛納電影節(2004)
  主競賽單元 金棕櫚獎(提名) 樸贊郁
  主競賽單元 評審團大獎 樸贊郁

  第24屆香港電影金像獎(2005)
  最佳亞洲電影
  1. Video
  2. ID                                       : 1
  3. Format                                   : HEVC
  4. Format/Info                              : High Efficiency Video Coding
  5. Format profile                           : Main [email protected]@High
  6. Codec ID                                 : V_MPEGH/ISO/HEVC
  7. Duration                                 : 1 h 59 min
  8. Bit rate                                 : 35.3 Mb/s
  9. Width                                    : 3 840 pixels
  10. Height                                   : 1 636 pixels
  11. Display aspect ratio                     : 2.35:1
  12. Frame rate mode                          : Constant
  13. Frame rate                               : 24.000 FPS
  14. Color space                              : YUV
  15. Chroma subsampling                       : 4:2:0
  16. Bit depth                                : 10 bits
  17. Bits/(Pixel*Frame)                       : 0.234
  18. Stream size                              : 29.5 GiB (89%)
  19. Title                                    : Oldboy.2003.KOREAN.2160p.BluRay.x265.10bit.SDR.DTS-HD.MA.5.1-SWTYBLZ
  20. Writing library                          : x265 3.0ed72af837053:[Windows][GCC 8.2.0][64 bit] 10bit
  21. Encoding settings                        : cpuid=1111039 / frame-threads=16 / numa-pools=44,44 / wpp / no-pmode / no-pme / no-psnr / no-ssim / log-level=2 / input-csp=1 / input-res=3840x1636 / interlace=0 / total-frames=172474 / level-idc=51 / high-tier=1 / uhd-bd=0 / ref=3 / no-allow-non-conformance / repeat-headers / annexb / aud / hrd / info / hash=0 / no-temporal-layers / no-open-gop / min-keyint=1 / keyint=24 / gop-lookahead=0 / bframes=4 / b-adapt=2 / b-pyramid / bframe-bias=0 / rc-lookahead=25 / lookahead-slices=4 / scenecut=40 / radl=0 / no-splice / no-intra-refresh / ctu=64 / min-cu-size=8 / no-rect / no-amp / max-tu-size=32 / tu-inter-depth=1 / tu-intra-depth=1 / limit-tu=0 / rdoq-level=0 / dynamic-rd=0.00 / no-ssim-rd / signhide / no-tskip / nr-intra=0 / nr-inter=0 / no-constrained-intra / strong-intra-smoothing / max-merge=2 / limit-refs=3 / no-limit-modes / me=1 / subme=2 / merange=57 / temporal-mvp / weightp / no-weightb / no-analyze-src-pics / deblock=0:0 / no-sao / no-sao-non-deblock / rd=3 / no-early-skip / rskip / no-fast-intra / no-tskip-fast / no-cu-lossless / no-b-intra / no-splitrd-skip / rdpenalty=0 / psy-rd=2.00 / psy-rdoq=0.00 / no-rd-refine / no-lossless / cbqpoffs=0 / crqpoffs=0 / rc=crf / crf=20.0 / qcomp=0.60 / qpstep=4 / stats-write=0 / stats-read=0 / vbv-maxrate=160000 / vbv-bufsize=160000 / vbv-init=0.9 / crf-max=0.0 / crf-min=0.0 / ipratio=1.40 / pbratio=1.30 / aq-mode=1 / aq-strength=1.00 / cutree / zone-count=0 / no-strict-cbr / qg-size=32 / no-rc-grain / qpmax=69 / qpmin=0 / no-const-vbv / sar=1 / overscan=0 / videoformat=5 / range=0 / colorprim=2 / transfer=2 / colormatrix=2 / chromaloc=0 / display-window=0 / max-cll=0,0 / min-luma=0 / max-luma=1023 / log2-max-poc-lsb=8 / vui-timing-info / vui-hrd-info / slices=1 / opt-qp-pps / opt-ref-list-length-pps / no-multi-pass-opt-rps / scenecut-bias=0.05 / no-opt-cu-delta-qp / no-aq-motion / no-hdr / no-hdr-opt / no-dhdr10-opt / no-idr-recovery-sei / analysis-reuse-level=5 / scale-factor=0 / refine-intra=0 / refine-inter=0 / refine-mv=0 / refine-ctu-distortion=0 / no-limit-sao / ctu-info=0 / no-lowpass-dct / refine-analysis-type=0 / copy-pic=1 / max-ausize-factor=1.0 / no-dynamic-refine / no-single-sei / no-hevc-aq / qp-adaptation-range=1.00
  22. Default                                  : Yes
  23. Forced                                   : No

  24. Audio #1
  25. ID                                       : 2
  26. Format                                   : DTS XLL
  27. Format/Info                              : Digital Theater Systems
  28. Commercial name                          : DTS-HD Master Audio
  29. Codec ID                                 : A_DTS
  30. Duration                                 : 1 h 59 min
  31. Bit rate mode                            : Variable
  32. Bit rate                                 : 3 460 kb/s
  33. Channel(s)                               : 6 channels
  34. Channel layout                           : C L R Ls Rs LFE
  35. Sampling rate                            : 48.0 kHz
  36. Frame rate                               : 93.750 FPS (512 SPF)
  37. Bit depth                                : 24 bits
  38. Compression mode                         : Lossless
  39. Stream size                              : 2.90 GiB (9%)
  40. Title                                    : Oldboy.2003.KOREAN.2160p.BluRay.x265.10bit.SDR.DTS-HD.MA.5.1-SWTYBLZ
  41. Language                                 : Korean
  42. Default                                  : Yes
  43. Forced                                   : No

  44. Audio #2
  45. ID                                       : 3
  46. Format                                   : AC-3
  47. Format/Info                              : Audio Coding 3
  48. Commercial name                          : Dolby Digital
  49. Codec ID                                 : A_AC3
  50. Duration                                 : 1 h 59 min
  51. Bit rate mode                            : Constant
  52. Bit rate                                 : 640 kb/s
  53. Channel(s)                               : 6 channels
  54. Channel layout                           : L R C LFE Ls Rs
  55. Sampling rate                            : 48.0 kHz
  56. Frame rate                               : 31.250 FPS (1536 SPF)
  57. Bit depth                                : 16 bits
  58. Compression mode                         : Lossy
  59. Stream size                              : 548 MiB (2%)
  60. Title                                    : Oldboy.2003.KOREAN.2160p.BluRay.x265.10bit.SDR.DTS-HD.MA.5.1-SWTYBLZ
  61. Language                                 : Korean
  62. Service kind                             : Complete Main
  63. Default                                  : No
  64. Forced                                   : No

  65. Text #1
  66. ID                                       : 4
  67. Format                                   : UTF-8
  68. Codec ID                                 : S_TEXT/UTF8
  69. Codec ID/Info                            : UTF-8 Plain Text
  70. Duration                                 : 1 h 56 min
  71. Bit rate                                 : 35 b/s
  72. Count of elements                        : 918
  73. Stream size                              : 29.8 KiB (0%)
  74. Title                                    : English-SRT
  75. Language                                 : English
  76. Default                                  : Yes
  77. Forced                                   : No

  78. Text #2
  79. ID                                       : 5
  80. Format                                   : PGS
  81. Muxing mode                              : zlib
  82. Codec ID                                 : S_HDMV/PGS
  83. Codec ID/Info                            : Picture based subtitle format used on BDs/HD-DVDs
  84. Duration                                 : 1 h 56 min
  85. Bit rate                                 : 20.6 kb/s
  86. Count of elements                        : 1838
  87. Stream size                              : 17.1 MiB (0%)
  88. Title                                    : English-PGS
  89. Language                                 : English
  90. Default                                  : No
  91. Forced                                   : No

  92. Text #3
  93. ID                                       : 6
  94. Format                                   : PGS
  95. Muxing mode                              : zlib
  96. Codec ID                                 : S_HDMV/PGS
  97. Codec ID/Info                            : Picture based subtitle format used on BDs/HD-DVDs
  98. Duration                                 : 1 h 56 min
  99. Bit rate                                 : 23.9 kb/s
  100. Count of elements                        : 1894
  101. Stream size                              : 19.9 MiB (0%)
  102. Title                                    : German-PGS
  103. Language                                 : German
  104. Default                                  : No
  105. Forced                                   : No

  106. Text #4
  107. ID                                       : 7
  108. Format                                   : PGS
  109. Muxing mode                              : zlib
  110. Codec ID                                 : S_HDMV/PGS
  111. Codec ID/Info                            : Picture based subtitle format used on BDs/HD-DVDs
  112. Duration                                 : 1 h 59 min
  113. Bit rate                                 : 30.3 kb/s
  114. Count of elements                        : 1778
  115. Stream size                              : 25.9 MiB (0%)
  116. Title                                    : German-PGS
  117. Language                                 : German
  118. Default                                  : No
  119. Forced                                   : No

  120. Menu
  121. 00:00:00.000                             : en:Chapter 01
  122. 00:05:58.583                             : en:Chapter 02
  123. 00:12:15.958                             : en:Chapter 03
  124. 00:16:35.958                             : en:Chapter 04
  125. 00:21:39.291                             : en:Chapter 05
  126. 00:28:39.291                             : en:Chapter 06
  127. 00:33:55.291                             : en:Chapter 07
  128. 00:42:34.708                             : en:Chapter 08
  129. 00:49:20.708                             : en:Chapter 09
  130. 01:00:55.916                             : en:Chapter 10
  131. 01:06:49.916                             : en:Chapter 11
  132. 01:12:32.625                             : en:Chapter 12
  133. 01:19:22.625                             : en:Chapter 13
  134. 01:24:18.625                             : en:Chapter 14
  135. 01:29:05.375                             : en:Chapter 15
  136. 01:35:22.375                             : en:Chapter 16
  137. 01:39:52.791                             : en:Chapter 17
  138. 01:47:38.791                             : en:Chapter 18
  139. 01:51:19.750                             : en:Chapter 19
  140. 01:57:25.750                             : en:Chapter 20
復制代碼









本帖隱藏的下載地址需要VIP會員才可瀏覽,您需要升級才可瀏覽,點擊這里升級VIP
分享到:  QQ好友和群QQ好友和群
收藏收藏
VIP會員免費任意下載本站所有資源!---點擊開通
回復

使用道具 舉報

懶得打字嘛,點擊右側快捷回復 【右側內容,后臺自定義】
您需要登錄后才可以回帖 登錄 | 立即注冊

本版積分規則

QQ|Archiver|手機版|小黑屋| 中國高清網 |網站地圖

GMT+8, 2019-12-11 01:53 , Processed in 0.183854 second(s), 36 queries .

Powered by HDchina X3.4

Copyright 2017-2019©HDchina.All right reserved

返回頂部 聯系我們
三分彩如何看规律