查看: 24|回復: 0
打印 上一主題 下一主題

[西部片] 劊子手/硬漢柔情 The.Hangman.1959.1080p.BluRay.REMUX.AVC.DTS-HD.MA.2.0-FGT 16.04GB

[復制鏈接]

 成長值: 3410

級別:資源管理組

注冊時間
2017-10-20
最后登錄
2019-12-10
聽眾
1
收聽
0
主題
88368
藍光幣
69931 枚
貢獻
12730 點
跳轉到指定樓層
樓主
發表于 2019-11-23 23:49:07 | 只看該作者 |只看大圖 回帖獎勵 |倒序瀏覽 |閱讀模式


譯  名 劊子手 / 硬漢柔情
片  名 The Hangman
年  代 1959
產  地 美國
類  別 西部
語  言 英語
上映日期 1959-06-17(美國)
IMDb評分  6.6/10 from 637 users
IMDb鏈接  https://www.imdb.com/title/tt0052877
豆瓣評分 0/10 from 0 users
豆瓣鏈接 https://movie.douban.com/subject/3783065/
片  長 87分鐘
導  演 邁克爾·柯蒂斯 Michael Curtiz
編  劇 Dudley Nichols
主  演 羅伯特·泰勒 Robert Taylor
       蒂娜·露易絲 Tina Louise
       杰克·羅德 Jack Lord


標  簽 西部 | RobertTaylor | 美國 | 動作 | Michael_Curtiz | D邁克爾·柯蒂斯 | (待下 | 邁克爾·柯蒂斯

簡  介  

  U.S. Marshal Bovard comes to a small border town to identify and arrest a fugitive but the whole town seems determined to prevent the marshal from doing his job.
  1. Video
  2. ID                                       : 1
  3. Format                                   : AVC
  4. Format/Info                              : Advanced Video Codec
  5. Format profile                           : [email protected]
  6. Format settings                          : CABAC / 4 Ref Frames
  7. Format settings, CABAC                   : Yes
  8. Format settings, Reference frames        : 4 frames
  9. Codec ID                                 : V_MPEG4/ISO/AVC
  10. Duration                                 : 1 h 26 min
  11. Bit rate mode                            : Variable
  12. Bit rate                                 : 25.0 Mb/s
  13. Maximum bit rate                         : 30.0 Mb/s
  14. Width                                    : 1 920 pixels
  15. Height                                   : 1 080 pixels
  16. Display aspect ratio                     : 16:9
  17. Frame rate mode                          : Constant
  18. Frame rate                               : 23.976 (24000/1001) FPS
  19. Standard                                 : Component
  20. Color space                              : YUV
  21. Chroma subsampling                       : 4:2:0
  22. Bit depth                                : 8 bits
  23. Scan type                                : Progressive
  24. Bits/(Pixel*Frame)                       : 0.503
  25. Stream size                              : 15.0 GiB (94%)
  26. Title                                    : The.Hangman.1959.1080p.BluRay.REMUX.AVC.DTS-HD.MA.2.0-FGT
  27. Writing library                          : x264 core 136
  28. Encoding settings                        : cabac=1 / ref=4 / deblock=1:0:0 / analyse=0x3:0x133 / me=umh / subme=9 / psy=1 / psy_rd=1.00:0.00 / mixed_ref=1 / me_range=16 / chroma_me=1 / trellis=2 / 8x8dct=1 / cqm=2 / deadzone=21,11 / fast_pskip=1 / chroma_qp_offset=-4 / threads=6 / lookahead_threads=1 / sliced_threads=0 / slices=4 / nr=0 / decimate=1 / interlaced=0 / bluray_compat=1 / stitchable=1 / constrained_intra=0 / bframes=3 / b_pyramid=0 / b_adapt=2 / b_bias=0 / direct=3 / weightb=1 / open_gop=1 / weightp=1 / keyint=24 / keyint_min=1 / scenecut=40 / intra_refresh=0 / rc_lookahead=24 / rc=2pass / mbtree=1 / bitrate=25000 / ratetol=1.0 / qcomp=0.60 / qpmin=5 / qpmax=69 / qpstep=4 / cplxblur=20.0 / qblur=0.5 / vbv_maxrate=30000 / vbv_bufsize=30000 / nal_hrd=vbr / ip_ratio=1.40 / aq=1:1.00
  29. Language                                 : English
  30. Default                                  : No
  31. Forced                                   : No
  32. Color range                              : Limited
  33. Color primaries                          : BT.709
  34. Transfer characteristics                 : BT.709
  35. Matrix coefficients                      : BT.709

  36. Audio
  37. ID                                       : 2
  38. Format                                   : DTS XLL
  39. Format/Info                              : Digital Theater Systems
  40. Commercial name                          : DTS-HD Master Audio
  41. Codec ID                                 : A_DTS
  42. Duration                                 : 1 h 26 min
  43. Bit rate mode                            : Variable
  44. Bit rate                                 : 1 678 kb/s
  45. Channel(s)                               : 2 channels
  46. Sampling rate                            : 48.0 kHz
  47. Frame rate                               : 93.750 FPS (512 SPF)
  48. Bit depth                                : 16 bits
  49. Compression mode                         : Lossless
  50. Stream size                              : 1.01 GiB (6%)
  51. Title                                    : The.Hangman.1959.1080p.BluRay.REMUX.AVC.DTS-HD.MA.2.0-FGT
  52. Language                                 : English
  53. Default                                  : Yes
  54. Forced                                   : No

  55. Menu
  56. 00:00:00.000                             : en:Chapter 01
  57. 00:10:00.558                             : en:Chapter 02
  58. 00:20:01.116                             : en:Chapter 03
  59. 00:30:01.841                             : en:Chapter 04
  60. 00:40:02.566                             : en:Chapter 05
  61. 00:50:02.958                             : en:Chapter 06
  62. 01:00:03.850                             : en:Chapter 07
  63. 01:10:04.283                             : en:Chapter 08
  64. 01:20:04.966                             : en:Chapter 09
復制代碼









分享到:  QQ好友和群QQ好友和群
收藏收藏
VIP會員免費任意下載本站所有資源!---點擊開通
回復

使用道具 舉報

懶得打字嘛,點擊右側快捷回復 【右側內容,后臺自定義】
您需要登錄后才可以回帖 登錄 | 立即注冊

本版積分規則

QQ|Archiver|手機版|小黑屋| 中國高清網 |網站地圖

GMT+8, 2019-12-10 23:23 , Processed in 0.177914 second(s), 36 queries .

Powered by HDchina X3.4

Copyright 2017-2019©HDchina.All right reserved

返回頂部 聯系我們
三分彩如何看规律