查看: 63|回復: 3
打印 上一主題 下一主題

[恐怖片] 復仇女神 The.Furies.2019.1080p.BluRay.REMUX.AVC.DTS-HD.MA.5.1-FGT 19.07GB

[復制鏈接]

 成長值: 3420

級別:資源管理組

注冊時間
2017-10-20
最后登錄
2019-12-11
聽眾
1
收聽
0
主題
88399
藍光幣
69951 枚
貢獻
12761 點
跳轉到指定樓層
樓主
發表于 2019-11-23 23:50:59 | 只看該作者 |只看大圖 回帖獎勵 |倒序瀏覽 |閱讀模式


譯  名 復仇女神 / Killer Instinct
片  名 The Furies
年  代 2019
產  地 澳大利亞 Australia
類  別 恐怖
IMDb評分  5.9/10 from 66 users
IMDb鏈接  http://www.imdb.com/title/tt8228172
豆瓣評分 0/10 from 0 users
豆瓣鏈接 https://movie.douban.com/subject/30368050/
導  演 Tony D'Aquino
編  劇 Tony D'Aquino
主  演 艾爾利·多茲 Airlie Dodds
       Linda Ngo
       Taylor Ferguson


標  簽 恐怖 | 澳大利亞電影

簡  介  

  暫無相關劇情介紹
  1. Video
  2. ID                                       : 1
  3. Format                                   : AVC
  4. Format/Info                              : Advanced Video Codec
  5. Format profile                           : [email protected]
  6. Format settings                          : CABAC / 4 Ref Frames
  7. Format settings, CABAC                   : Yes
  8. Format settings, Reference frames        : 4 frames
  9. Codec ID                                 : V_MPEG4/ISO/AVC
  10. Duration                                 : 1 h 22 min
  11. Bit rate mode                            : Constant
  12. Bit rate                                 : 31.1 Mb/s
  13. Nominal bit rate                         : 35.0 Mb/s / 35.0 Mb/s
  14. Width                                    : 1 920 pixels
  15. Height                                   : 1 080 pixels
  16. Display aspect ratio                     : 16:9
  17. Frame rate mode                          : Constant
  18. Frame rate                               : 23.976 (24000/1001) FPS
  19. Standard                                 : Component
  20. Color space                              : YUV
  21. Chroma subsampling                       : 4:2:0
  22. Bit depth                                : 8 bits
  23. Scan type                                : Progressive
  24. Bits/(Pixel*Frame)                       : 0.625
  25. Stream size                              : 17.9 GiB (94%)
  26. Title                                    : The.Furies.2019.1080p.BluRay.REMUX.AVC.DTS-HD.MA.5.1-FGT
  27. Writing library                          : x264 core 142
  28. Encoding settings                        : cabac=1 / ref=4 / deblock=1:0:0 / analyse=0x3:0x133 / me=umh / subme=9 / psy=1 / psy_rd=1.00:0.00 / mixed_ref=1 / me_range=16 / chroma_me=1 / trellis=2 / 8x8dct=1 / cqm=2 / deadzone=21,11 / fast_pskip=1 / chroma_qp_offset=-2 / threads=24 / lookahead_threads=2 / sliced_threads=0 / slices=4 / nr=0 / decimate=1 / interlaced=0 / bluray_compat=1 / stitchable=1 / constrained_intra=0 / bframes=3 / b_pyramid=0 / b_adapt=2 / b_bias=0 / direct=3 / weightb=1 / open_gop=1 / weightp=1 / keyint=24 / keyint_min=1 / scenecut=40 / intra_refresh=0 / rc_lookahead=24 / rc=cbr / mbtree=1 / bitrate=35000 / ratetol=1.0 / qcomp=0.60 / qpmin=3 / qpmax=69 / qpstep=4 / vbv_maxrate=35000 / vbv_bufsize=30000 / nal_hrd=cbr / filler=1 / ip_ratio=1.40 / aq=1:1.00
  29. Language                                 : English
  30. Default                                  : No
  31. Forced                                   : No
  32. Color range                              : Limited
  33. Color primaries                          : BT.709
  34. Transfer characteristics                 : BT.709
  35. Matrix coefficients                      : BT.709

  36. Audio
  37. ID                                       : 2
  38. Format                                   : DTS XLL
  39. Format/Info                              : Digital Theater Systems
  40. Commercial name                          : DTS-HD Master Audio
  41. Codec ID                                 : A_DTS
  42. Duration                                 : 1 h 22 min
  43. Bit rate mode                            : Variable
  44. Bit rate                                 : 1 960 kb/s
  45. Channel(s)                               : 6 channels
  46. Channel layout                           : C L R Ls Rs LFE
  47. Sampling rate                            : 48.0 kHz
  48. Frame rate                               : 93.750 FPS (512 SPF)
  49. Bit depth                                : 16 bits
  50. Compression mode                         : Lossless
  51. Stream size                              : 1.13 GiB (6%)
  52. Title                                    : The.Furies.2019.1080p.BluRay.REMUX.AVC.DTS-HD.MA.5.1-FGT
  53. Language                                 : English
  54. Default                                  : Yes
  55. Forced                                   : No

  56. Menu
  57. 00:00:00.000                             : en:Chapter 01
  58. 00:07:37.457                             : en:Chapter 02
  59. 00:11:08.167                             : en:Chapter 03
  60. 00:21:23.198                             : en:Chapter 04
  61. 00:29:15.837                             : en:Chapter 05
  62. 00:38:20.089                             : en:Chapter 06
  63. 00:44:25.871                             : en:Chapter 07
  64. 00:52:32.732                             : en:Chapter 08
  65. 00:58:23.833                             : en:Chapter 09
  66. 01:04:44.630                             : en:Chapter 10
  67. 01:14:33.927                             : en:Chapter 11
  68. 01:18:47.806                             : en:Chapter 12
復制代碼









分享到:  QQ好友和群QQ好友和群
收藏收藏
VIP會員免費任意下載本站所有資源!---點擊開通
回復

使用道具 舉報

級別:初級觀眾 Lv.1

注冊時間
2019-11-24
最后登錄
2019-12-9
聽眾
1
收聽
0
主題
0
藍光幣
7 枚
貢獻
0 點
沙發
發表于 2019-11-24 14:23:55 | 只看該作者

樓主太厲害了!樓主,電影應該很好看我覺得中國高清電影網真是個好地方!
VIP會員免費任意下載本站所有資源!---點擊開通
回復

使用道具 舉報

級別:普通觀眾 Lv.2

注冊時間
2019-11-12
最后登錄
2019-12-10
聽眾
1
收聽
0
主題
0
藍光幣
50 枚
貢獻
0 點
板凳
發表于 2019-11-30 18:49:58 | 只看該作者

這東西我收了!謝謝樓主!中國高清電影網真好!
VIP會員免費任意下載本站所有資源!---點擊開通
回復

使用道具 舉報

級別:初級觀眾 Lv.1

注冊時間
2019-7-21
最后登錄
2019-12-7
聽眾
2
收聽
0
主題
0
藍光幣
15 枚
貢獻
0 點
地板
發表于 7 天前 | 只看該作者
樓主發貼辛苦了,謝謝樓主分享!我覺得中國高清電影網是注冊對了!
VIP會員免費任意下載本站所有資源!---點擊開通
回復

使用道具 舉報

懶得打字嘛,點擊右側快捷回復 【右側內容,后臺自定義】
您需要登錄后才可以回帖 登錄 | 立即注冊

本版積分規則

QQ|Archiver|手機版|小黑屋| 中國高清網 |網站地圖

GMT+8, 2019-12-11 01:31 , Processed in 0.190435 second(s), 36 queries .

Powered by HDchina X3.4

Copyright 2017-2019©HDchina.All right reserved

返回頂部 聯系我們
三分彩如何看规律