查看: 20|回復: 0
打印 上一主題 下一主題

[西部片] 尋求庇護/荒城蕩寇戰 Run.for.Cover.1955.1080p.BluRay.REMUX.AVC.DTS-HD.MA.2.0-FGT 16.42GB

[復制鏈接]

 成長值: 3420

級別:資源管理組

注冊時間
2017-10-20
最后登錄
2019-12-11
聽眾
1
收聽
0
主題
88399
藍光幣
69949 枚
貢獻
12761 點
跳轉到指定樓層
樓主
發表于 2019-11-23 23:54:48 | 只看該作者 |只看大圖 回帖獎勵 |倒序瀏覽 |閱讀模式


譯  名 尋求庇護 / 荒城蕩寇戰(港)
片  名 Run for Cover
年  代 1955
產  地 美國
類  別 西部
語  言 英語
上映日期 1955-04-29
IMDb評分  6.7/10 from 1189 users
IMDb鏈接  https://www.imdb.com/title/tt0048570
豆瓣評分 7.0/10 from 79 users
豆瓣鏈接 https://movie.douban.com/subject/3415379/
片  長 93 分鐘
導  演 尼古拉斯·雷 Nicholas Ray
編  劇 Winston Miller / Harriet Frank Jr. / Irving Ravetch
主  演 詹姆斯·卡格尼 James Cagney
       韋薇卡·琳德佛斯 Viveca Lindfors
       約翰·德里克 John Derek
       琪恩·漢旭特 Jean Hersholt
       格蘭特·威瑟斯 Grant Withers
       歐內斯特·博格寧 Ernest Borgnine
       歐文·培根 Irving Bacon


標  簽 西部 | 西部片 | 尼古拉斯·雷 | 美國 | Nicholas_Ray | 美國電影 | NicholasRay | 1950s

簡  介  

  Odd little Western that gets off to a snappy start when a man (Matt Dow) is mistaken as a train robber. After the town's sheriff shoots the kid he's riding with, Dow clears his name and ends up as the new sheriff. He romances a Swedish woman and settles in to a peaceful life only to find that the boy has a few secrets of his own.
  1. Video
  2. ID                                       : 1
  3. Format                                   : AVC
  4. Format/Info                              : Advanced Video Codec
  5. Format profile                           : [email protected]
  6. Format settings                          : CABAC / 4 Ref Frames
  7. Format settings, CABAC                   : Yes
  8. Format settings, Reference frames        : 4 frames
  9. Codec ID                                 : V_MPEG4/ISO/AVC
  10. Duration                                 : 1 h 31 min
  11. Bit rate mode                            : Variable
  12. Bit rate                                 : 24.0 Mb/s
  13. Maximum bit rate                         : 34.0 Mb/s
  14. Width                                    : 1 920 pixels
  15. Height                                   : 1 080 pixels
  16. Display aspect ratio                     : 16:9
  17. Frame rate mode                          : Constant
  18. Frame rate                               : 23.976 (24000/1001) FPS
  19. Standard                                 : NTSC
  20. Color space                              : YUV
  21. Chroma subsampling                       : 4:2:0
  22. Bit depth                                : 8 bits
  23. Scan type                                : Progressive
  24. Bits/(Pixel*Frame)                       : 0.483
  25. Stream size                              : 15.4 GiB (94%)
  26. Title                                    : Run.for.Cover.1955.1080p.BluRay.REMUX.AVC.DTS-HD.MA.2.0-FGT
  27. Language                                 : English
  28. Default                                  : No
  29. Forced                                   : No
  30. Color range                              : Limited
  31. Color primaries                          : BT.709
  32. Transfer characteristics                 : BT.709
  33. Matrix coefficients                      : BT.709

  34. Audio
  35. ID                                       : 2
  36. Format                                   : DTS XLL
  37. Format/Info                              : Digital Theater Systems
  38. Commercial name                          : DTS-HD Master Audio
  39. Codec ID                                 : A_DTS
  40. Duration                                 : 1 h 31 min
  41. Bit rate mode                            : Variable
  42. Bit rate                                 : 1 568 kb/s
  43. Channel(s)                               : 2 channels
  44. Sampling rate                            : 48.0 kHz
  45. Frame rate                               : 93.750 FPS (512 SPF)
  46. Bit depth                                : 16 bits
  47. Compression mode                         : Lossless
  48. Stream size                              : 1.01 GiB (6%)
  49. Title                                    : Run.for.Cover.1955.1080p.BluRay.REMUX.AVC.DTS-HD.MA.2.0-FGT
  50. Language                                 : English
  51. Default                                  : Yes
  52. Forced                                   : No

  53. Menu
  54. 00:00:00.000                             : en:Chapter 01
  55. 00:10:00.308                             : en:Chapter 02
  56. 00:20:01.200                             : en:Chapter 03
  57. 00:30:01.800                             : en:Chapter 04
  58. 00:40:02.400                             : en:Chapter 05
  59. 00:50:03.000                             : en:Chapter 06
  60. 01:00:03.600                             : en:Chapter 07
  61. 01:10:03.866                             : en:Chapter 08
  62. 01:20:04.633                             : en:Chapter 09
  63. 01:30:05.400                             : en:Chapter 10
復制代碼









分享到:  QQ好友和群QQ好友和群
收藏收藏
VIP會員免費任意下載本站所有資源!---點擊開通
回復

使用道具 舉報

懶得打字嘛,點擊右側快捷回復 【右側內容,后臺自定義】
您需要登錄后才可以回帖 登錄 | 立即注冊

本版積分規則

QQ|Archiver|手機版|小黑屋| 中國高清網 |網站地圖

GMT+8, 2019-12-11 01:15 , Processed in 0.176994 second(s), 36 queries .

Powered by HDchina X3.4

Copyright 2017-2019©HDchina.All right reserved

返回頂部 聯系我們
三分彩如何看规律