查看: 51|回復: 0
打印 上一主題 下一主題

[動畫片] 杰克遜 Jetsons.The.Movie.1990.1080p.BluRay.REMUX.AVC.DTS-HD.MA.5.1-FGT 16.16GB

[復制鏈接]

 成長值: 3420

級別:資源管理組

注冊時間
2017-10-20
最后登錄
2019-12-11
聽眾
1
收聽
0
主題
88399
藍光幣
69953 枚
貢獻
12761 點
跳轉到指定樓層
樓主
發表于 2019-11-23 23:56:04 | 只看該作者 |只看大圖 回帖獎勵 |倒序瀏覽 |閱讀模式


譯  名 杰克遜
片  名 Jetsons: The Movie
年  代 1990
產  地 美國
類  別 喜劇 / 科幻 / 動畫 / 歌舞 / 家庭
語  言 英語
IMDb評分  5.6/10 from 4385 users
IMDb鏈接  https://www.imdb.com/title/tt0099878
豆瓣評分 0/10 from 0 users
豆瓣鏈接 https://movie.douban.com/subject/4733074/
片  長 82 分鐘
導  演 Joseph Barbera / William Hanna
主  演 George O'Hanlon
       Mel Blanc
       Penny Singleton


標  簽 1990 | 觀影2011 | 美國 | 動畫 | BDISO | 科幻 | ? | animation

簡  介  

  The Jetsons have made their film debut in a film about family, friends, and all that stuff. George's tightwad boss, Mr. Spacely, is determined to get his remote factor on his ore asteroid miles away to make 1,000,000 sprocketts, but all the vice-presidents sent to run it have disappeared for some reason, so Mr. Spacely must find someone else to run it: it would have to be someone mighty brave, and mighty stupid. So who does he pick? George Jetson. So George packs up his family: Jane, his sensible and loving wife; Judy- his rebellious teenage daughter who's gotten a new boyfriend: a super galactical rock star; Elroy- basketball champ who's losing faith in his father; and Rosie, his sassy maid. So while Judy meets another boy and enjoys a huge shopping mall, George sets off to work with his new friend, a robot foreman named Rudy 2. The factory is soon sabotaged on opening day, so George intends to investigate and disappears. So it's up to Elroy and his new friends to rescue George. Along for the ride are Judy and Jane. A wild futuristic romp on a screen bigger than your TV
  1. Video
  2. ID                                       : 1
  3. Format                                   : AVC
  4. Format/Info                              : Advanced Video Codec
  5. Format profile                           : [email protected]
  6. Format settings                          : CABAC / 4 Ref Frames
  7. Format settings, CABAC                   : Yes
  8. Format settings, Reference frames        : 4 frames
  9. Codec ID                                 : V_MPEG4/ISO/AVC
  10. Duration                                 : 1 h 21 min
  11. Bit rate mode                            : Variable
  12. Bit rate                                 : 26.1 Mb/s
  13. Maximum bit rate                         : 32.0 Mb/s
  14. Width                                    : 1 920 pixels
  15. Height                                   : 1 080 pixels
  16. Display aspect ratio                     : 16:9
  17. Frame rate mode                          : Constant
  18. Frame rate                               : 23.976 (24000/1001) FPS
  19. Standard                                 : NTSC
  20. Color space                              : YUV
  21. Chroma subsampling                       : 4:2:0
  22. Bit depth                                : 8 bits
  23. Scan type                                : Progressive
  24. Bits/(Pixel*Frame)                       : 0.526
  25. Stream size                              : 15.0 GiB (93%)
  26. Title                                    : Jetsons.The.Movie.1990.1080p.BluRay.REMUX.AVC.DTS-HD.MA.5.1-FGT
  27. Language                                 : English
  28. Default                                  : No
  29. Forced                                   : No
  30. Color range                              : Limited
  31. Color primaries                          : BT.709
  32. Transfer characteristics                 : BT.709
  33. Matrix coefficients                      : BT.709

  34. Audio
  35. ID                                       : 2
  36. Format                                   : DTS XLL
  37. Format/Info                              : Digital Theater Systems
  38. Commercial name                          : DTS-HD Master Audio
  39. Codec ID                                 : A_DTS
  40. Duration                                 : 1 h 21 min
  41. Bit rate mode                            : Variable
  42. Bit rate                                 : 2 080 kb/s
  43. Channel(s)                               : 6 channels
  44. Channel layout                           : C L R Ls Rs LFE
  45. Sampling rate                            : 48.0 kHz
  46. Frame rate                               : 93.750 FPS (512 SPF)
  47. Bit depth                                : 16 bits
  48. Compression mode                         : Lossless
  49. Stream size                              : 1.19 GiB (7%)
  50. Title                                    : Jetsons.The.Movie.1990.1080p.BluRay.REMUX.AVC.DTS-HD.MA.5.1-FGT
  51. Language                                 : English
  52. Default                                  : Yes
  53. Forced                                   : No

  54. Menu
  55. 00:00:00.000                             : en:Chapter 01
  56. 00:07:36.914                             : en:Chapter 02
  57. 00:21:28.704                             : en:Chapter 03
  58. 00:30:08.598                             : en:Chapter 04
  59. 00:42:23.541                             : en:Chapter 05
  60. 00:50:32.237                             : en:Chapter 06
  61. 00:59:48.293                             : en:Chapter 07
  62. 01:10:14.168                             : en:Chapter 08
  63. 01:15:10.881                             : en:Chapter 09
復制代碼









分享到:  QQ好友和群QQ好友和群
收藏收藏
VIP會員免費任意下載本站所有資源!---點擊開通
回復

使用道具 舉報

懶得打字嘛,點擊右側快捷回復 【右側內容,后臺自定義】
您需要登錄后才可以回帖 登錄 | 立即注冊

本版積分規則

QQ|Archiver|手機版|小黑屋| 中國高清網 |網站地圖

GMT+8, 2019-12-11 01:58 , Processed in 0.254614 second(s), 36 queries .

Powered by HDchina X3.4

Copyright 2017-2019©HDchina.All right reserved

返回頂部 聯系我們
三分彩如何看规律